↑↓Torrent.by
Поиск
Логин: Регистрация
Пароль: Восстановить пароль
Загрузка...

Один день лета (2018) WEBRip от GeneralFilm

Скачать odin-den-leta-2018-webrip-ot-generalfilm.torrent
U Магнитная ссылка Размер: 1.45 GB Раздают: 58 Качают: 26 Добавлен: 2019-07-20 20:55:43
Один день лета (2018) WEBRip от GeneralFilm

Оригинальное название: Один день лета
Год выпуска: 2018
Жанр:  Комедия
Выпущено: Россия, Продюсерский центр «СПбГИКиТ Дебют»
Режиссер: Александр Игудин
В ролях: Татьяна Бабенкова, Алексы Коморовский, Степан Ледков, Игорь Иванов, Максим Леонидов, Юрий Гальцев, Иван Краско, Эра Зиганшина, Геннадий Смирнов, Маргарита Аброськина, Анастасия Лазо, Тина Тарусина, Алексей Копылов, Егор Бакулин

О фильме: Вся жизнь недавней провинциалки, а теперь москвички Кати — одно сплошное селфи с чередой знаменитостей. Любые интриги ради лайка, любые подвиги во имя статуса «звезды инстаграм». Но количества подписчиков по-прежнему недостаточно, и ради заветной цели она отправляется в Санкт-Петербург, чтобы сделать селфи с загадочным художником, скрывающим свою личность, и тем самым взорвать интернет. А в это время в аэропорту солидный незнакомец просит Катю передать неизвестному ей адресату обычный конверт. Выполнение этого поручения не только рушит ее планы, но и в результате всего лишь за один день в корне меняет ее взгляды на жизнь.

Качество: WEBRip
Видео: XviD build 73, 720x400 (16:9), 25.000 fps, 1918 Kbps (0.266 bit/pixel)
Аудио: 48.0 kHz, AC3, 2/0 ch, 192 kbps
Продолжительность: 01:36:18
Перевод: Не требуется [Русский]
Cубтитры: нет

Релиз:


[+] MediaInfo
General
Complete name               : D:RazdachiOdin.Denj.Leta.2018.WEBRip. GeneralFilm.avi
Format                      : AVI
Format/Info                 : Audio Video Interleave
File size                   : 1.45 GiB
Duration                    : 1 h 38 min
Overall bit rate            : 2 120 kb/s
Writing application         : VirtualDubMod 1.5.10.3 | www.virtualdub-fr.org || (build 2550/release)
Writing library             : VirtualDubMod build 2550/release

Video
ID                          : 0
Format                      : MPEG-4 Visual
Format profile              : Advanced Simple@L5
Format settings             : BVOP1 / Custom Matrix
Format settings, BVOP       : 1
Format settings, QPel       : No
Format settings, GMC        : No warppoints
Format settings, Matrix     : Custom
Codec ID                    : XVID
Codec ID/Hint               : XviD
Duration                    : 1 h 38 min
Bit rate                    : 1 918 kb/s
Width                       : 720 pixels
Height                      : 400 pixels
Display aspect ratio        : 16:9
Frame rate                  : 25.000 FPS
Color space                 : YUV
Chroma subsampling          : 4:2:0
Bit depth                   : 8 bits
Scan type                   : Progressive
Compression mode            : Lossy
Bits/(Pixel*Frame)          : 0.266
Stream size                 : 1.32 GiB (90%)
Writing library             : XviD 73

Audio
ID                          : 1
Format                      : AC-3
Format/Info                 : Audio Coding 3
Commercial name             : Dolby Digital
Codec ID                    : 2000
Duration                    : 1 h 38 min
Bit rate mode               : Constant
Bit rate                    : 192 kb/s
Channel(s)                  : 2 channels
Channel layout              : L R
Sampling rate               : 48.0 kHz
Frame rate                  : 31.250 FPS (1536 SPF)
Bit depth                   : 16 bits
Compression mode            : Lossy
Stream size                 : 135 MiB (9%)
Alignment                   : Split accross interleaves
Interleave, duration        : 40  ms (1.00 video frame)
Interleave, preload duratio : 500  ms
Service kind                : Complete Main



Скриншоты:
[+] Всего файлов в раздаче - 1:
Odin.Denj.Leta.2018.WEBRip. GeneralFilm.avi1.45 GB

Показать еще раздачи по запросу один:
Сегодня U Один день / Ha-roo / A Day (2017) HDRip от ExKinoRay | BadBajo 1.45 GB ↑ 122 ↓ 27
2019-08-09 U Плюс один / Plus One (2019) BDRip от MegaPeer | HDRezka Studio 1.46 GB ↑ 157 ↓ 58
2019-07-21 U Один день лета (2018) WEBRip 720p от ExKinoRay 2.88 GB ↑ 106 ↓ 33
2019-07-21 U Один день лета (2018) HDTV 1080p от Generalfilm 4.85 GB ↑ 152 ↓ 40
2019-07-20 U Один день лета (2019) WEBRip от Files-x 1.37 GB ↑ 85 ↓ 37
2019-07-20 U Один день лета (2019) WEBRip-AVC от Files-x 1.37 GB ↑ 144 ↓ 69
2019-06-25 U Плюс один / Plus One (2019) WEB-DLRip | HDRezka Studio 1.46 GB ↑ 234 ↓ 29

Отзывы
Зарегистрируйтесь чтобы добавить комментарий.
Обратная связь
Copyleft ©