↑↓Torrent.by
Поиск
Логин: Регистрация
Пароль: Восстановить пароль
Загрузка...

Быстрее света: Мечта о межзвёздных полётах / Faster Than Light: the Dream of interstellar Flight (2017) DVB | P1

Скачать bystree-sveta-mechta-o-mezhzvezdnyh-poletah-faster-than-light-the-dream-of-interstellar-flight-2017-dvb-p1.torrent
U Магнитная ссылка Размер: 807.15 MB Раздают: 68 Качают: 10 Добавлен: 2019-07-21 08:03:10
Быстрее света: Мечта о межзвёздных полётах / Faster Than Light: the Dream of interstellar Flight (2017) DVB | P1

Название: Быстрее света: Мечта о межзвёздных полётах
Оригинальное название: Faster Than Light: the Dream of interstellar Flight
Год выхода: 2017
Жанр: Документальный, космос
Режиссер: Томас Лукас

О фильме:
Окунуться в неизвестность, увидеть, что за горизонтом, найти новые звезды, новые миры... Человечество с давних времен мечтает об этом. Сегодня ученые считают, что в нашей галактике находится как минимум 9 миллиардов звездных систем, похожих на Солнечную, с планетами, подобными Земле. Но в процессе поиска других обитаемых миров остается один вопрос. Как мы туда попадем? Этот удивительный документальный фильм поразит вас и подарит билет на космические корабли будущего. Мы посмотрим на весь путь - от ядерного синтеза до использования силы черных дыр, от антиматерии до искривления пространственно-временного континуума - и"потрогаем" технологии, которые дадут толчок космической гонке завтрашнего дня.

Страна: США
Студия: SPITZ GREATIVE MEDIA, MIRAGE3D, THOMAS LUCAS PRODUCTIONS, INC.
Продолжительность: 00:48:00
Перевод: Профессиональный (одноголосый закадровый) Видеофильм ТВ

Файл
Кодек: AVC/H.264
Качество: DVB
Видео: 720x576@1047x576 (16:9) AVC (H.264) Main@L3.0, ~ 2040 kbps, 25fps
Звук: Русский 48 kHz, MPEG Layer 2, 2 ch, ~192.00 kbps avg

Семпл

Релиз от: kyba
[+] MediaInfo
Complete name               : F:НаладкиSD-фильмыБыстрее света_ Мечта о межзвездных полетах.ts
Format                      : MPEG-TS
File size                   : 807 MiB
Duration                    : 48 min 0 s
Overall bit rate mode       : Variable
Overall bit rate            : 2 351 kb/s

Video
ID                          : 401 (0x191)
Menu ID                     : 2608 (0xA30)
Format                      : AVC
Format/Info                 : Advanced Video Codec
Format profile              : Main@L3
Format settings             : CABAC / 4 Ref Frames
Format settings, CABAC      : Yes
Format settings, Reference  : 4 frames
Format settings, GOP        : M=4, N=28
Codec ID                    : 27
Duration                    : 48 min 0 s
Bit rate                    : 2 040 kb/s
Width                       : 720 pixels
Height                      : 576 pixels
Display aspect ratio        : 16:9
Frame rate                  : 25.000 FPS
Standard                    : Component
Color space                 : YUV
Chroma subsampling          : 4:2:0
Bit depth                   : 8 bits
Scan type                   : Interlaced
Scan type, store method     : Separated fields
Scan order                  : Top Field First
Bits/(Pixel*Frame)          : 0.197
Stream size                 : 701 MiB (87%)
Color range                 : Limited
Color primaries             : BT.601 PAL
Transfer characteristics    : BT.470 System B/G
Matrix coefficients         : BT.470 System B/G

Audio
ID                          : 402 (0x192)
Menu ID                     : 2608 (0xA30)
Format                      : MPEG Audio
Format version              : Version 1
Format profile              : Layer 2
Codec ID                    : 3
Duration                    : 48 min 0 s
Bit rate mode               : Constant
Bit rate                    : 192 kb/s
Channel(s)                  : 2 channels
Sampling rate               : 48.0 kHz
Frame rate                  : 41.667 FPS (1152 SPF)
Compression mode            : Lossy
Stream size                 : 65.9 MiB (8%)
Language                    : Russian



Скриншоты:
[+] Всего файлов в раздаче - 1:
Быстрее света_ Мечта о межзвездных полетах.ts807.15 MB

Похожие раздачи по запросу - быстрее:
2019-07-28 U Жара против холода: что нас погубит быстрее? (2019) SATRip 1.33 GB ↑ 60 ↓ 13
2019-03-13 U Чарльз Спендер - Сделай свой компьютер стабильнее и быстрее: Что Майкрософт забыла вам сказать (2019) FB2, RTF 30.90 MB ↑ 688 ↓ 78
2019-01-30 U Питер Камп - Скорочтение. Как запоминать больше, читая в 8 раз быстрее (2015) PDF, MOBI, EPUB 17.50 MB ↑ 251 ↓ 87

Отзывы
Зарегистрируйтесь чтобы добавить комментарий.
Обратная связь
Copyleft ©