↑↓Torrent.by
Поиск
Логин: Регистрация
Пароль: Восстановить пароль
Загрузка...

BBC: Планеты / The Planets [S01] (2019) BDRip 1080p | P2

Скачать bbc-planety-the-planets-s01-2019-bdrip-1080p-p2.torrent
U Магнитная ссылка Размер: 25.18 GB Раздают: 22 Качают: 15 Добавлен: 2019-07-21 08:04:12
BBC: Планеты / The Planets [S01] (2019) BDRip 1080p | P2

Название: BBC: Планеты
Оригинальное название: The Planets
Год выхода: 2019
Жанр: документальный, космос
Режиссер: Мартин Джонсон, Стивен Кутер, Ник Стэйси, Stephen Cooter

О фильме: Сияние звезд озаряет ночное небо. Только в нашей галактике их сотни миллиардов. Многие из них гораздо больше и ярче нашего Солнца. В масштабе галактик и звезд пленеты нашей солнечной системы по сути не более, чем песчинки, на мгновение попавшие на свет. Но на этих песчинках за более чем 4 миллиарда лет происходили грандиозные истории. Истории рождения планет и их гибели. Планет, созданных средь безмятежностей и хаоса. Их судьбы переплетены сильнее, чем мы могли бы представить...

Страна: Великобритания, США, Китай
Студия: BBC Studios Productions, NOVA, WGBH, Tencent Penguin Pictures
Продолжительность: ~00:58:00 серия
Перевод: Профессиональный (двухголосый, закадровый) SDI Media

Файл
Качество: BDRip 1080p
Формат: Matroska
Видео: 1920x1080 at 25.000 fps, MPEG-4 AVC, ~11700 kbps avg
Аудио#1: Russian: 48 kHz, AC3, 2/0 (L,R) ch, ~192 kbps avg |Двухголосый, SDI Media|
Аудио#2: English: 48 kHz, AAC, 2/0 (L,R) ch, ~288 kbps avg
Субтитров: English

***Исходник: The.Planets.2019.1080p.BluRay.AAC2.0.x264-DON
***За аудиодорожки спасибо: kyba62
***Релиз: BlueBird & DaVinci Science
[+] Список серий
01. Мгновение в лучах Солнца - планеты земного типа / A Moment in the Sun - The Terrestrial Planets
Каменистые планеты Меркурий, Венера, Земля и Марс родились в одно и то же время из одного и того же материала, но жили радикально разными жизнями. Какие огромные силы в игре?
02. Две сестры - Земля и Марс / The Two Sisters - Earth & Mars
Профессор Брайан Кокс продолжает свое путешествие по солнечной системе, показывая, что когда-то здесь была не одна, а две голубые планеты.
03. Крестный отец - Юпитер / The Godfather: Jupiter
Брайан Кокс продолжает свое исследование Солнечной системы, посещая планету, которая затмевает все остальные: Юпитер. Его размер дает ему большую силу, которую он использовал для манипулирования другими планетами.
04. В дали от Солнца - Сатурн / Life Beyond the Sun: Saturn
Профессор Брайан Кокс раскрывает историю Сатурна. Сатурн начал свою жизнь как странная планета из камня и льда и со временем превратился в газового гиганта, без кольца и похожего на своего конкурента Юпитера.
05. Путь во тьму - внешняя часть солнечной системы / Into The Darkness: The outer Solar System
По ту сторону от ураганов Юпитера и колец Сатурна окуржающий мир меняется. Именно здесь находится самая загадочная из планет - Уран, бледно голубой мраморный шар, парящий в глубинах Космоса.



[+] MediaInfo
Общее
Полное имя                               : S01E01.A.Moment.in.the.Sun.The.Terrestrial.Planets.Rus.Eng-BLUEBIRD.mkv
Формат                                   : Matroska
Версия формата                           : Version 4 / Version 2
Размер файла                             : 4,94 Гбайт
Продолжительность                        : 58 м. 11 с.
Общий поток                              : 12,1 Мбит/сек
Название фильма                          : The Planets (2019) - 01 A Moment in the Sun: The Terrestrial Planets
Дата кодирования                         : UTC 2019-07-13 20:54:59
Программа кодирования                    : mkvmerge v8.0.0 ('Til The Day That I Die') 32bit
Библиотека кодирования                   : libebml v1.3.1 + libmatroska v1.4.2

Видео
Идентификатор                            : 1
Формат                                   : AVC
Формат/Информация                        : Advanced Video Codec
Профиль формата                          : High@L4.1
Настройки формата                        : CABAC / 4 Ref Frames
Параметр CABAC формата                   : Да
Параметр RefFrames формата               : 4 кадра
Идентификатор кодека                     : V_MPEG4/ISO/AVC
Продолжительность                        : 58 м. 11 с.
Битрейт                                  : 11,7 Мбит/сек
Ширина                                   : 1920 пикселей
Высота                                   : 1080 пикселей
Соотношение сторон                       : 16:9
Режим частоты кадров                     : Постоянный
Частота кадров                           : 25,000 кадров/сек
Цветовое пространство                    : YUV
Субдискретизация насыщенности            : 4:2:0
Битовая глубина                          : 8 бит
Тип развёртки                            : Прогрессивная
Бит/(Пиксели*Кадры)                      : 0.225
Размер потока                            : 4,74 Гбайт (96%)
Заголовок                                : MPEG-4 AVC Video / 11.7 Mbps / 1080i / 25 fps / 16:9 / High Profile 4.1
Библиотека кодирования                   : x264 core 157 r2969 d4099dd
Настройки программы                      : cabac=1 / ref=4 / deblock=1:-3:-3 / analyse=0x3:0x133 / me=umh / subme=10 / psy=1 / psy_rd=1.05:0.00 / mixed_ref=1 / me_range=32 / chroma_me=1 / trellis=2 / 8x8dct=1 / cqm=0 / deadzone=21,11 / fast_pskip=0 / chroma_qp_offset=-2 / threads=12 / lookahead_threads=3 / sliced_threads=0 / nr=0 / decimate=0 / interlaced=0 / bluray_compat=0 / constrained_intra=0 / bframes=10 / b_pyramid=2 / b_adapt=2 / b_bias=0 / direct=3 / weightb=1 / open_gop=0 / weightp=2 / keyint=250 / keyint_min=25 / scenecut=40 / intra_refresh=0 / rc_lookahead=60 / rc=crf / mbtree=0 / crf=16.5 / qcomp=0.60 / qpmin=0 / qpmax=69 / qpstep=4 / vbv_maxrate=62500 / vbv_bufsize=78125 / crf_max=0.0 / nal_hrd=none / filler=0 / ip_ratio=1.40 / pb_ratio=1.30 / aq=3:0.90
Язык                                     : English
Default                                  : Да
Forced                                   : Нет

Аудио #1
Идентификатор                            : 2
Формат                                   : AC-3
Формат/Информация                        : Audio Coding 3
Идентификатор кодека                     : A_AC3
Продолжительность                        : 58 м. 11 с.
Вид битрейта                             : Постоянный
Битрейт                                  : 192 Кбит/сек
Каналы                                   : 2 канала
Расположение каналов                     : Front: L R
Частота                                  : 48,0 КГц
Частота кадров                           : 31,250 кадров/сек (1536 SPF)
Битовая глубина                          : 16 бит
Метод сжатия                             : С потерями
Размер потока                            : 79,9 Мбайт (2%)
Заголовок                                : rus / AC3 / 2.0 / 48 kHz / 192 kbps / 16-bit
Язык                                     : Russian
ServiceKind                   : Complete Main
Default                                  : Да
Forced                                   : Да

Аудио #2
Идентификатор                            : 3
Формат                                   : AAC
Формат/Информация                        : Advanced Audio Codec
Профиль формата                          : LC
Идентификатор кодека                     : A_AAC-2
Продолжительность                        : 58 м. 11 с.
Битрейт                                  : 288 Кбит/сек
Каналы                                   : 2 канала
Расположение каналов                     : Front: L R
Частота                                  : 48,0 КГц
Частота кадров                           : 46,875 кадров/сек (1024 SPF)
Метод сжатия                             : С потерями
Задержка видео                           : 9 мс.
Размер потока                            : 121 Мбайт (2%)
Заголовок                                : eng / AAC / 2.0 / 48 kHz / 288 kbps
Язык                                     : English
Default                                  : Нет
Forced                                   : Нет

Текст
Идентификатор                            : 4
Формат                                   : UTF-8
Идентификатор кодека                     : S_TEXT/UTF8
Идентификатор кодека/Информация          : UTF-8 Plain Text
Продолжительность                        : 57 м. 12 с.
Битрейт                                  : 61 бит/сек
ElementCount                             : 562
Размер потока                            : 25,9 Кбайт (0%)
Заголовок                                : eng / SRT
Язык                                     : English
Default                                  : Да
Forced                                   : Нет

Меню
00:00:00.000                             : :Chapter 01
00:08:39.760                             : :Chapter 02
00:21:09.400                             : :Chapter 03
00:32:54.360                             : :Chapter 04
00:42:03.360                             : :Chapter 05
00:53:02.800                             : :Chapter 06



Скриншоты:
[+] Всего файлов в раздаче - 5:
S01E01.A.Moment.in.the.Sun.The.Terrestrial.Planets.Rus.Eng-BLUEBIRD.mkv4.94 GB
S01E02.The.Two.Sisters.Earth.and.Mars.Rus.Eng-BLUEBIRD.mkv5.31 GB
S01E03.The.Godfather.Jupiter.Rus.Eng-BLUEBIRD.mkv5.36 GB
S01E04.Life.Beyond.the.Sun.Saturn.Rus.Eng-BLUEBIRD.mkv4.60 GB
S01E05.Into.the.Darkness.Ice.Worlds.Rus.Eng-BLUEBIRD.mkv4.98 GB

Похожие раздачи по запросу - планеты:
2019-08-06 U Маугли дикой планеты / Terra Willy: Planète inconnue (2019) WEB-DLRip-AVC от ExKinoRay | iTunes 1.43 GB ↑ 83 ↓ 36
2019-08-06 U Маугли дикой планеты / Terra Willy: Planète inconnue (2019) WEB-DL 1080p | iTunes 2.94 GB ↑ 151 ↓ 71
2019-07-17 U BBC: Планеты / The Planets [S01] (2019) BDRemux 1080i | P2 64.42 GB ↑ 24 ↓ 41
2019-06-08 U BBC: Планеты / The Planets [01-03 из 05] (2019) HDTVRip 720p | P2 5.60 GB ↑ 101 ↓ 51
2014-03-12 U BBC: Планеты / BBC: The Planets (1999) DVDRip от -=HD-NET=- 5.47 GB ↑ 674 ↓ 18

Отзывы
Зарегистрируйтесь чтобы добавить комментарий.
Обратная связь
Copyleft ©