↑↓Torrent.by
Поиск
Логин: Регистрация
Пароль: Восстановить пароль
Загрузка...

Один день лета (2018) HDTV 1080p от Generalfilm

Скачать odin-den-leta-2018-hdtv-1080p-ot-generalfilm.torrent
U Магнитная ссылка Размер: 4.85 GB Раздают: 154 Качают: 40 Добавлен: 2019-07-21 08:04:23
Один день лета (2018) HDTV 1080p от Generalfilm

Один день лета

Год выпуска: 2018
Страна: Россия
Студия: Продюсерский центр «СПбГИКиТ-Дебют»
Жанр: Комедия, музыка, мелодрама
Перевод: Не требуется
Продолжительность: 01:36:21
Режиссер: Александр Игудин
В ролях: Татьяна Бабенкова (Катя), Алекс Коморовски (Андрей), Степан Ледков, Андрей Носков, Юрий Гальцев, Максим Леонидов, Иван Краско, Эра Зиганшина, Анастасия Лазо (Надя), Алексей Копылов, Маргарита Аброськина (Лена), Игорь Иванов

Описание:
Вся жизнь недавней провинциалки, а теперь москвички Кати - одно сплошное селфи с чередой знаменитостей. Любые интриги ради лайка, любые подвиги во имя статуса «звезды инстаграм». Но количества подписчиков по-прежнему недостаточно, и ради заветной цели она отправляется в Санкт-Петербург, чтобы сделать селфи с загадочным художником, скрывающим свою личность, и тем самым взорвать интернет. А в это время в аэропорту солидный незнакомец просит Катю передать неизвестному ей адресату обычный конверт.


Качество: HDTV 1080p
Формат: MKV
Видео: AVC, 1920x1080 (16:9), 7050 kbps, 25 fps, 0,136 bpp
Аудио: AC3 / 2.0 / 48 kHz / 192 kbps /

Релиз:


[+] ОтчетМедиаИнфо

General
Unique ID                                : 190355271422618306152666180261196377542 (0x8F35177BA60B411880B4325F599CADC6)
Complete name                            : E:Запись с твOdin den leta.2019.HDTV 1080p.by.White Smoke.R.G.Generalfilm.mkv
Format                                   : Matroska
Format version                           : Version 4 / Version 2
File size                                : 4.85 GiB
Duration                                 : 1 h 36 min
Overall bit rate mode                    : Constant
Overall bit rate                         : 7 210 kb/s
Movie name                               : Odin den leta.2019.HDTV 1080p.by.White Smoke.R.G.Generalfilm.mkv
Encoded date                             : UTC 2019-07-20 13:02:39
Writing application                      : mkvmerge v6.8.0 ('Theme for Great Cities') 64bit built on Mar  2 2014 21:34:26
Writing library                          : libebml v1.3.0 + libmatroska v1.4.1

Video
ID                                       : 1
Format                                   : AVC
Format/Info                              : Advanced Video Codec
Format profile                           : High@L4.1
Format settings, CABAC                   : Yes
Format settings, ReFrames                : 3 frames
Codec ID                                 : V_MPEG4/ISO/AVC
Duration                                 : 1 h 36 min
Bit rate mode                            : Constant
Bit rate                                 : 7 051 kb/s
Width                                    : 1 920 pixels
Height                                   : 1 080 pixels
Display aspect ratio                     : 16:9
Frame rate mode                          : Constant
Frame rate                               : 25.000 FPS
Standard                                 : PAL
Color space                              : YUV
Chroma subsampling                       : 4:2:0
Bit depth                                : 8 bits
Scan type                                : Progressive
Bits/(Pixel*Frame)                       : 0.136
Stream size                              : 4.63 GiB (95%)
Default                                  : Yes
Forced                                   : No
Color range                              : Limited
Color primaries                          : BT.709
Transfer characteristics                 : BT.709
Matrix coefficients                      : BT.709

Audio
ID                                       : 2
Format                                   : AC-3
Format/Info                              : Audio Coding 3
Mode extension                           : CM (complete main)
Format settings, Endianness              : Big
Codec ID                                 : A_AC3
Duration                                 : 1 h 36 min
Bit rate mode                            : Constant
Bit rate                                 : 192 kb/s
Channel(s)                               : 2 channels
Channel positions                        : Front: L R
Sampling rate                            : 48.0 kHz
Frame rate                               : 31.250 FPS (1536 spf)
Compression mode                         : Lossy
Stream size                              : 132 MiB (3%)
Default                                  : Yes
Forced                                   : No



Скриншоты:
[+] Всего файлов в раздаче - 1:
Odin den leta.2019.HDTV 1080p.by.White Smoke.R.G.Generalfilm.mkv4.85 GB

Показать еще раздачи по запросу один:
2019-08-17 U Один день / Ha-roo / A Day (2017) HDRip от ExKinoRay | BadBajo 1.45 GB ↑ 118 ↓ 32
2019-08-09 U Плюс один / Plus One (2019) BDRip от MegaPeer | HDRezka Studio 1.46 GB ↑ 157 ↓ 58
2019-07-21 U Один день лета (2018) WEBRip 720p от ExKinoRay 2.88 GB ↑ 109 ↓ 33
2019-07-20 U Один день лета (2018) WEBRip от GeneralFilm 1.45 GB ↑ 57 ↓ 27
2019-07-20 U Один день лета (2019) WEBRip от Files-x 1.37 GB ↑ 91 ↓ 38
2019-07-20 U Один день лета (2019) WEBRip-AVC от Files-x 1.37 GB ↑ 147 ↓ 69
2019-06-25 U Плюс один / Plus One (2019) WEB-DLRip | HDRezka Studio 1.46 GB ↑ 238 ↓ 29

Отзывы
Зарегистрируйтесь чтобы добавить комментарий.
Обратная связь
Copyleft ©