↑↓Torrent.by
Поиск
Логин: Регистрация
Пароль: Восстановить пароль

Потерянное звено / Missing Link (2019) BDRip 1080p от OlLanDGroup | P

Скачать poteryannoe-zveno-missing-link-2019-bdrip-1080p-ot-ollandgroup-p.torrent
U Магнитная ссылка Размер: 5.51 GB Раздают: 159 Качают: 67 Добавлен: 2019-07-21 12:29:05
Потерянное звено / Missing Link (2019) BDRip 1080p от OlLanDGroup | P

Название: Потерянное звено
Оригинальное название: Missing Link
Год выпуска: 2019
Жанр:  Мультфильм, фэнтези, комедия, приключения, семейный
Выпущено: США, Канада, Laika Entertainment
Режиссер: Крис Батлер
В ролях: Хью Джекман, Дэвид Уоллиамс, Стивен Фрай, Мэтт Лукас, Зак Галифианакис, Тимоти Олифант, Зои Салдана, Эмма Томпсон, Амрита Ачария, Чинг Валдес-Аран

О фильме: Бесстрашный натуралист и исследователь Лайонел Фрост поставил перед собой задачу рассказать миру о существовании разных созданий, о которых говорят только в легендах. Его новым открытием становится Линк, так называемое «недостающее звено», связывающее человечество с его предками по эволюционной лестнице.

Качество: BDRip (1080p)
Видео: MPEG-4 AVC, 6645 Кбит/с, 1920x800, 23.976 кадр/с
Аудио: Русский (AC3, 2 ch, 192 Кбит/с), английский (DTS, 6 ch, 1509 Кбит/с)
Размер: 5.51 ГБ
Продолжительность: 01:34:26
Перевод: Профессиональный многоголосый
Субтитры: Английские

Озвучивание - Профессиональное многоголосое (HDRezka Studio)
Сохранены оригинальные чаптеры как на Blu-Ray.

Релиз:  Rip by:


[+] x264

x264 [info]: frame I:1187  Avg QP:14.13  size:223488
x264 [info]: frame P:34982 Avg QP:17.26  size: 67231
x264 [info]: frame B:99671 Avg QP:18.12  size: 20959
x264 [info]: consecutive B-frames:  5.0%  4.3% 17.8% 15.4% 14.9% 33.2%  4.8%  1.3%  1.2%  0.6%  1.4%
x264 [info]: mb I  I16..4:  6.9% 76.3% 16.8%
x264 [info]: mb P  I16..4:  1.8% 15.2%  1.7%  P16..4: 32.6% 29.9% 10.8%  2.0%  0.2%    skip: 5.7%
x264 [info]: mb B  I16..4:  0.5%  1.8%  0.2%  B16..8: 29.9% 18.8%  3.2%  direct: 6.6%  skip:39.0%  L0:44.3% L1:41.5% BI:14.2%
x264 [info]: 8x8 transform intra:78.7% inter:47.7%
x264 [info]: direct mvs  spatial:98.0% temporal:2.0%
x264 [info]: coded y,uvDC,uvAC intra: 79.9% 88.3% 74.8% inter: 21.1% 32.6% 18.8%
x264 [info]: i16 v,h,dc,p: 23% 13%  9% 56%
x264 [info]: i8 v,h,dc,ddl,ddr,vr,hd,vl,hu: 12% 11% 14%  8% 10% 10% 10% 11% 14%
x264 [info]: i4 v,h,dc,ddl,ddr,vr,hd,vl,hu: 15% 10% 19%  7% 11% 11% 10%  8% 10%
x264 [info]: i8c dc,h,v,p: 42% 24% 18% 15%
x264 [info]: Weighted P-Frames: Y:3.2% UV:1.9%
x264 [info]: ref P L0: 54.0%  9.4% 20.9%  7.0%  7.1%  1.6%  0.0%
x264 [info]: ref B L0: 68.3% 22.1%  7.4%  2.2%
x264 [info]: ref B L1: 90.0% 10.0%
x264 [info]: kb/s:6645.15



[+] Инфо-файл

Общее
Уникальный идентификатор                 : 193116500539340774020577254651375332671 (0x9148E296DB750034A7FB81477FBB2D3F)
Полное имя                               : D:ЗагрузкиMissing.Link.2019.x264.BDRip.(1080p).OlLanDGroup.mkv
Формат                                   : Matroska
Версия формата                           : Version 4 / Version 2
Размер файла                             : 5,51 Гбайт
Продолжительность                        : 1 ч. 34 м.
Общий поток                              : 8349 Кбит/сек
Название фильма                          : Потерянное звено.2019.Rip by: ollan
Дата кодирования                         : UTC 2019-07-21 02:55:37
Программа кодирования                    : mkvmerge v6.5.0 ('Isn't she lovely') built on Oct 20 2013 12:50:05
Библиотека кодирования                   : libebml v1.3.0 + libmatroska v1.4.1
Обложка                                  : Yes
Attachments                              : Cover - Missing.Link.png

Видео
Идентификатор                            : 1
Формат                                   : AVC
Формат/Информация                        : Advanced Video Codec
Профиль формата                          : High@L4.1
Настройки формата                        : CABAC / 5 Ref Frames
Параметр CABAC формата                   : Да
Параметр ReFrames формата                : 5 кадров
Идентификатор кодека                     : V_MPEG4/ISO/AVC
Продолжительность                        : 1 ч. 34 м.
Битрейт                                  : 6645 Кбит/сек
Ширина                                   : 1920 пикселей
Высота                                   : 800 пикселей
Соотношение сторон                       : 2,40:1
Режим частоты кадров                     : Постоянный
Частота кадров                           : 23,976 (24000/1001) кадра/сек
Цветовое пространство                    : YUV
Субдискретизация насыщенности            : 4:2:0
Битовая глубина                          : 8 бит
Тип развёртки                            : Прогрессивная
Бит/(Пиксели*Кадры)                      : 0.180
Размер потока                            : 4,28 Гбайт (78%)
Библиотека кодирования                   : x264 core 146 r2538 121396c
Настройки программы                      : cabac=1 / ref=5 / deblock=1:-3:-3 / analyse=0x3:0x133 / me=umh / subme=11 / psy=1 / psy_rd=0.95:0.05 / mixed_ref=1 / me_range=64 / chroma_me=1 / trellis=2 / 8x8dct=1 / cqm=0 / deadzone=21,11 / fast_pskip=0 / chroma_qp_offset=-3 / threads=12 / lookahead_threads=3 / sliced_threads=0 / nr=0 / decimate=0 / interlaced=0 / bluray_compat=0 / constrained_intra=0 / bframes=10 / b_pyramid=2 / b_adapt=2 / b_bias=0 / direct=3 / weightb=1 / open_gop=0 / weightp=2 / keyint=240 / keyint_min=23 / scenecut=40 / intra_refresh=0 / rc_lookahead=40 / rc=2pass / mbtree=0 / bitrate=6645 / ratetol=1.0 / qcomp=0.60 / qpmin=0 / qpmax=69 / qpstep=4 / cplxblur=20.0 / qblur=0.5 / vbv_maxrate=50000 / vbv_bufsize=62500 / nal_hrd=none / filler=0 / ip_ratio=1.40 / pb_ratio=1.30 / aq=1:1.00
Язык                                     : English
Default                                  : Да
Forced                                   : Нет

Аудио #1
Идентификатор                            : 2
Формат                                   : AC-3
Формат/Информация                        : Audio Coding 3
Идентификатор кодека                     : A_AC3
Продолжительность                        : 1 ч. 34 м.
Вид битрейта                             : Постоянный
Битрейт                                  : 192 Кбит/сек
Каналы                                   : 2 канала
Расположение каналов                     : Front: L R
Частота                                  : 48,0 КГц
Частота кадров                           : 31,250 кадров/сек (1536 SPF)
Битовая глубина                          : 16 бит
Метод сжатия                             : С потерями
Размер потока                            : 130 Мбайт (2%)
Заголовок                                : MVO [HDRezka Studio]
Язык                                     : Russian
Service kind                             : Complete Main
Default                                  : Да
Forced                                   : Нет

Аудио #2
Идентификатор                            : 3
Формат                                   : DTS
Формат/Информация                        : Digital Theater Systems
Идентификатор кодека                     : A_DTS
Продолжительность                        : 1 ч. 34 м.
Вид битрейта                             : Постоянный
Битрейт                                  : 1509 Кбит/сек
Каналы                                   : 6 каналов
Расположение каналов                     : Front: L C R, Side: L R, LFE
Частота                                  : 48,0 КГц
Частота кадров                           : 93,750 кадра/сек (512 SPF)
Битовая глубина                          : 24 бит
Метод сжатия                             : С потерями
Размер потока                            : 1019 Мбайт (18%)
Язык                                     : English
Default                                  : Нет
Forced                                   : Нет

Текст #1
Идентификатор                            : 4
Формат                                   : UTF-8
Идентификатор кодека                     : S_TEXT/UTF8
Идентификатор кодека/Информация          : UTF-8 Plain Text
Заголовок                                : Forced
Язык                                     : English
Default                                  : Нет
Forced                                   : Нет

Текст #2
Идентификатор                            : 5
Формат                                   : UTF-8
Идентификатор кодека                     : S_TEXT/UTF8
Идентификатор кодека/Информация          : UTF-8 Plain Text
Заголовок                                : Full
Язык                                     : English
Default                                  : Нет
Forced                                   : Нет

Меню
00:00:00.000                             : en:Chapter 01
00:05:12.520                             : en:Chapter 02
00:08:53.616                             : en:Chapter 03
00:12:29.206                             : en:Chapter 04
00:15:35.851                             : en:Chapter 05
00:20:18.550                             : en:Chapter 06
00:24:26.840                             : en:Chapter 07
00:29:55.126                             : en:Chapter 08
00:33:14.659                             : en:Chapter 09
00:36:40.948                             : en:Chapter 10
00:40:33.389                             : en:Chapter 11
00:43:45.164                             : en:Chapter 12
00:47:24.299                             : en:Chapter 13
00:52:50.876                             : en:Chapter 14
00:55:14.477                             : en:Chapter 15
00:58:51.903                             : en:Chapter 16
00:59:59.721                             : en:Chapter 17
01:02:54.729                             : en:Chapter 18
01:05:15.494                             : en:Chapter 19
01:08:17.176                             : en:Chapter 20
01:11:00.339                             : en:Chapter 21
01:13:20.437                             : en:Chapter 22
01:21:51.197                             : en:Chapter 23
01:24:48.625                             : en:Chapter 24




Скриншоты:
[+] Всего файлов в раздаче - 1:
Missing.Link.2019.x264.BDRip.(1080p).OlLanDGroup.mkv5.51 GB

Похожие раздачи по запросу - потерянное:
2019-07-21 U Потерянное звено / Missing Link (2019) BDRip-AVC от OlLanDGroup | P 1.59 GB ↑ 252 ↓ 41
2018-09-15 U Потерянное счастье (2018) WEB-DLRip от Files-x 1.36 GB ↑ 351 ↓ 96

Отзывы
Зарегистрируйтесь чтобы добавить комментарий.
Обратная связь
Copyleft ©