↑↓Torrent.by
Поиск
Логин: Регистрация
Пароль: Восстановить пароль
Загрузка...

КВН-2019. Премьер лига. 1/8 финала. Игра первая [21.07] (2019) HDTVRip от GeneralFilm

Скачать kvn-2019-premer-liga-1-8-finala-igra-pervaya-21-07-hdtvrip-ot-generalfilm.torrent
U Магнитная ссылка Размер: 1,011.85 MB Раздают: 545 Качают: 131 Добавлен: 2019-07-21 19:58:29
КВН-2019. Премьер лига. 1/8 финала. Игра первая  [21.07] (2019) HDTVRip от GeneralFilm

Год выпуска: 2019
Жанр:  Юмор
Выпущено: Россия, АМИК, Первый канал
Ведущий: Александр Масляков мл.

О фильме: Что такое КВН - знают, без сомнения, все. В КВН играют во всем мире, это прежде всего молодежная игра. Постоянные конкурсные задания - "Визитная карточка", "Разминка", "Конкурс капитанов", "Музыкальный конкурс", "Домашнее задание". Игру команд оценивает профессиональное жюри - люди, у которых с чувством юмора все в порядке, многие из них раньше сами играли в КВН. Среди членов жюри были Константин Эрнст, Леонид Парфенов, Юлий Гусман, Леонид Ярмольник, Валдис Пельш, Сергей Шолохов, Геннадий Хазанов и другие. Кроме самих игр проводятся ежегодные встречи: фестиваль команд КВН (с 1990 г., семь раз фестиваль проходил в г.Сочи), музыкальный фестиваль КВН, летний кубок КВН, международные товарищеские игры в КВН. Сборная КВН играет со сборными других стран. Уже состоялись игры между сборной КВН и сборными Америки, Австралии, Израиля... Игра в КВН для многих становится профессией, а многие благодаря игре связывают жизнь с искусством. Из КВН "вышли": Леонид Якубович, Михаил Марфин, Татьяна Лазарева, Олег Филимонов, Юлий Гусман и многие другие.

Качество: HDTVRip
Видео: XviD, 1784 Кбит/с, 720x400, 25 кадр/с
Аудио: Русский (AC3, 2 ch, 192 Кбит/с)
Продолжительность: 01:11:09
Перевод: Не требуется
Субтитры: нет

Релиз:
[+] MediaInfo

Общее
Полное имя                               : D:KVN-2019. Premer liga (1.8 finala. Igra pervaja).HDTVRip.GeneralFilm.avi
Формат                                   : AVI
Формат/Информация                        : Audio Video Interleave
Размер файла                             : 1012 Мбайт
Продолжительность                        : 1 ч. 11 м.
Общий поток                              : 1988 Кбит/сек

Видео
Идентификатор                            : 0
Формат                                   : MPEG-4 Visual
Профиль формата                          : Advanced Simple@L5
Параметр BVOP формата                    : 1
Параметр QPel формата                    : Нет
Параметр GMC формата                     : Без точки перехода
Параметр матрицы формата                 : Выборочная
Идентификатор кодека                     : XVID
Идентификатор кодека/Подсказка           : XviD
Продолжительность                        : 1 ч. 11 м.
Битрейт                                  : 1784 Кбит/сек
Ширина                                   : 720 пикселей
Высота                                   : 400 пикселей
Соотношение сторон                       : 16:9
Частота кадров                           : 25,000 кадров/сек
Цветовое пространство                    : YUV
Субдискретизация насыщенности            : 4:2:0
Битовая глубина                          : 8 бит
Тип развёртки                            : Прогрессивная
Метод сжатия                             : С потерями
Бит/(Пиксели*Кадры)                      : 0.248
Размер потока                            : 908 Мбайт (90%)
Библиотека кодирования                   : XviD 1.2.1 (UTC 2008-12-04)

Аудио
Идентификатор                            : 1
Формат                                   : AC-3
Формат/Информация                        : Audio Coding 3
Расширение режима                        : CM (complete main)
Параметр Endianness формата              : Big
Идентификатор кодека                     : 2000
Продолжительность                        : 1 ч. 11 м.
Вид битрейта                             : Постоянный
Битрейт                                  : 192 Кбит/сек
Каналы                                   : 2 канала
Расположение каналов                     : Front: L R
Частота                                  : 48,0 КГц
Частота кадров                           : 31,250 кадров/сек (1536 spf)
Битовая глубина                          : 16 бит
Метод сжатия                             : С потерями
Размер потока                            : 97,7 Мбайт (10%)
Выравнивание                             : Соединение по промежуткам
Продолжительность промежутка             : 32  мс. (0,80 видеокадр)




[+] Команды

«+7», Тверь
«Доктор Хауcс», Могилёв
«Буряты», Иркутск
«Станция Динамо», РЭУ им. Плеханова, Москва
Сборная Арктики, Архангельская область
«Сурский край», Пензенская область
«Хорошие парни», РУДН, Москва
«19.30 ДГТУ», Ростов-на-Дону



Скриншоты:
[+] Всего файлов в раздаче - 1:
KVN-2019. Premer liga (1.8 finala. Igra pervaja).HDTVRip.GeneralFilm.avi1,011.85 MB

Показать еще раздачи по запросу премьер:
2019-08-18 U КВН-2019. Премьер лига. 1/4 финала. Игра вторая [18.08] (2019) SATRip 1.04 GB ↑ 242 ↓ 74
2019-08-12 U КВН-2019. Премьер лига [01-04] (2019) WEBRip от Files-x 3.69 GB ↑ 45 ↓ 120
2019-08-06 U КВН-2019. Премьер лига [01-03] (2019) WEBRip от Files-x 2.75 GB ↑ 73 ↓ 146
2019-07-29 U КВН-2019. Премьер лига. 1/8 финала. Игра вторая [28.07] (2019) HDTV 1080i от GeneralFilm 5.99 GB ↑ 106 ↓ 19
2019-07-28 U КВН-2019. Премьер лига. 1/8 финала. Игра вторая [28.07] (2019) HDTVRip от GeneralFilm 961.09 MB ↑ 119 ↓ 31
2019-07-28 U КВН-2019. Премьер лига. 1/8 финала. Игра вторая [28.07] (2019) SATRip 1.01 GB ↑ 392 ↓ 81
2019-07-21 U КВН-2019. Премьер лига. 1/8 финала. Игра первая [21.07] (2019) HDTV 1080i от GeneralFilm 6.08 GB ↑ 187 ↓ 81

Отзывы
Зарегистрируйтесь чтобы добавить комментарий.
Обратная связь
Copyleft ©