↑↓Torrent.by
Поиск
Логин: Регистрация
Пароль: Восстановить пароль
Загрузка...

КВН-2019. Премьер лига. 1/8 финала. Игра первая [21.07] (2019) HDTV 1080i от GeneralFilm

Скачать kvn-2019-premer-liga-1-8-finala-igra-pervaya-21-07-hdtv-1080i-ot-generalfilm.torrent
U Магнитная ссылка Размер: 6.08 GB Раздают: 187 Качают: 79 Добавлен: 2019-07-21 19:58:51
КВН-2019. Премьер лига. 1/8 финала. Игра первая  [21.07] (2019) HDTV 1080i от GeneralFilm

Год выпуска: 2019
Жанр:  Юмор
Выпущено: Россия, АМИК, Первый канал
Ведущий: Александр Масляков мл.

О фильме: Что такое КВН - знают, без сомнения, все. В КВН играют во всем мире, это прежде всего молодежная игра. Постоянные конкурсные задания - "Визитная карточка", "Разминка", "Конкурс капитанов", "Музыкальный конкурс", "Домашнее задание". Игру команд оценивает профессиональное жюри - люди, у которых с чувством юмора все в порядке, многие из них раньше сами играли в КВН. Среди членов жюри были Константин Эрнст, Леонид Парфенов, Юлий Гусман, Леонид Ярмольник, Валдис Пельш, Сергей Шолохов, Геннадий Хазанов и другие. Кроме самих игр проводятся ежегодные встречи: фестиваль команд КВН (с 1990 г., семь раз фестиваль проходил в г.Сочи), музыкальный фестиваль КВН, летний кубок КВН, международные товарищеские игры в КВН. Сборная КВН играет со сборными других стран. Уже состоялись игры между сборной КВН и сборными Америки, Австралии, Израиля... Игра в КВН для многих становится профессией, а многие благодаря игре связывают жизнь с искусством. Из КВН "вышли": Леонид Якубович, Михаил Марфин, Татьяна Лазарева, Олег Филимонов, Юлий Гусман и многие другие.

Качество: HDTV (1080i)
Видео: MPEG-TS AVC, 11.1 Мбит/с, 1920x1080
Аудио: Русский (AC3, 2 ch, 384 Кбит/с), (MP2, 2 ch, 192 Кбит/с)
Продолжительность: 01:11:09
Перевод: Не требуется
Субтитры: нет

Релиз:
[+] MediaInfo

Общее
Идентификатор                            : 1 (0x1)
Полное имя                               : D:ЗаписьKVN-2019. Premer liga (1.8 finala. Igra pervaja).HDTV(1080i).GeneralFilm.ts
Формат                                   : MPEG-TS
Размер файла                             : 6,08 Гбайт
Продолжительность                        : 1 ч. 11 м.
Режим общего битрейта                    : Переменный
Общий поток                              : 12,2 Мбит/сек

Видео
Идентификатор                            : 1904 (0x770)
Идентификатор меню                       : 80 (0x50)
Формат                                   : AVC
Формат/Информация                        : Advanced Video Codec
Профиль формата                          : High@L4
Параметр CABAC формата                   : Да
Параметр ReFrames формата                : 3 кадра
Идентификатор кодека                     : 27
Продолжительность                        : 1 ч. 11 м.
Битрейт                                  : 11,1 Мбит/сек
Ширина                                   : 1920 пикселей
Высота                                   : 1080 пикселей
Соотношение сторон                       : 16:9
Частота кадров                           : 25,000 кадров/сек
Стандарт вещания                         : Component
Цветовое пространство                    : YUV
Субдискретизация насыщенности            : 4:2:0
Битовая глубина                          : 8 бит
Тип развёртки                            : Чересстрочная
Метод сохранения типа развёртки          : Раздельные поля
Порядок развёртки                        : Верхнее поле первое
Бит/(Пиксели*Кадры)                      : 0.213
Размер потока                            : 5,49 Гбайт (90%)
Цветовой диапазон                        : Limited
Основные цвета                           : BT.709
Характеристики трансфера                 : BT.709
Коэффициенты матрицы                     : BT.709

Аудио #1
Идентификатор                            : 2904 (0xB58)
Идентификатор меню                       : 80 (0x50)
Формат                                   : AC-3
Формат/Информация                        : Audio Coding 3
Расширение режима                        : CM (complete main)
Параметр Endianness формата              : Big
Идентификатор кодека                     : 6
Продолжительность                        : 1 ч. 11 м.
Вид битрейта                             : Постоянный
Битрейт                                  : 384 Кбит/сек
Каналы                                   : 6 каналов
Расположение каналов                     : Front: L C R, Side: L R, LFE
Частота                                  : 48,0 КГц
Частота кадров                           : 31,250 кадров/сек (1536 spf)
Битовая глубина                          : 16 бит
Метод сжатия                             : С потерями
Задержка видео                           : -80 мс.
Размер потока                            : 195 Мбайт (3%)
Язык                                     : Russian

Аудио #2
Идентификатор                            : 2905 (0xB59)
Идентификатор меню                       : 80 (0x50)
Формат                                   : MPEG Audio
Версия формата                           : Version 1
Профиль формата                          : Layer 2
Идентификатор кодека                     : 3
Продолжительность                        : 1 ч. 11 м.
Вид битрейта                             : Постоянный
Битрейт                                  : 192 Кбит/сек
Каналы                                   : 2 канала
Частота                                  : 48,0 КГц
Метод сжатия                             : С потерями
Задержка видео                           : -80 мс.
Размер потока                            : 97,7 Мбайт (2%)
Язык                                     : Russian




[+] Команды

«+7», Тверь
«Доктор Хауcс», Могилёв
«Буряты», Иркутск
«Станция Динамо», РЭУ им. Плеханова, Москва
Сборная Арктики, Архангельская область
«Сурский край», Пензенская область
«Хорошие парни», РУДН, Москва
«19.30 ДГТУ», Ростов-на-Дону



Скриншоты:
[+] Всего файлов в раздаче - 1:
KVN-2019. Premer liga (1.8 finala. Igra pervaja).HDTV(1080i).GeneralFilm.ts6.08 GB

Показать еще раздачи по запросу премьер:
2019-08-12 U КВН-2019. Премьер лига [01-04] (2019) WEBRip от Files-x 3.69 GB ↑ 45 ↓ 118
2019-08-06 U КВН-2019. Премьер лига [01-03] (2019) WEBRip от Files-x 2.75 GB ↑ 73 ↓ 144
2019-07-29 U КВН-2019. Премьер лига. 1/8 финала. Игра вторая [28.07] (2019) HDTV 1080i от GeneralFilm 5.99 GB ↑ 106 ↓ 17
2019-07-28 U КВН-2019. Премьер лига. 1/8 финала. Игра вторая [28.07] (2019) HDTVRip от GeneralFilm 961.09 MB ↑ 119 ↓ 31
2019-07-28 U КВН-2019. Премьер лига. 1/8 финала. Игра вторая [28.07] (2019) SATRip 1.01 GB ↑ 392 ↓ 81
2019-07-21 U КВН-2019. Премьер лига. 1/8 финала. Игра первая [21.07] (2019) HDTVRip от GeneralFilm 1,011.85 MB ↑ 545 ↓ 131
2018-09-09 U КВН-2018. Премьер-лига. 1/2 финала. Игра вторая [08.09] (2018) HDTVRip от GeneralFilm 1.07 GB ↑ 484 ↓ 136

Отзывы
Зарегистрируйтесь чтобы добавить комментарий.
Обратная связь
Copyleft ©