↑↓Torrent.by
Поиск
Логин: Регистрация
Пароль: Восстановить пароль
Загрузка...

BBC Horizon: Прощай, Кассини. Здравствуй, Сатурн! / Goodbye Cassini - Hello Saturn (2017) DVB | P2

Скачать bbc-horizon-proschay-kassini-zdravstvuy-saturn-goodbye-cassini-hello-2017-dvb-p2.torrent
U Магнитная ссылка Размер: 670.84 MB Раздают: 69 Качают: 12 Добавлен: 2019-07-22 07:26:39
BBC Horizon: Прощай, Кассини. Здравствуй, Сатурн! / Goodbye Cassini - Hello Saturn (2017) DVB | P2

Название: Прощай, Кассини. Здравствуй, Сатурн!
Оригинальное название: Goodbye Cassini - Hello Saturn
Год выхода: 2017
Жанр: Документальный, космос
Режиссер: Тоби Макдональд

О фильме:
15 сентября 2017 года космический аппарат Кассини завершил свою знаменитую 13-летнюю миссию к Сатурну, погрузившись в атмосферу газового гиганта. Фильм рассказывает об этом удивительном путешествии. Вы впервые заглянте внутрь колец планеты, а также примете участие в первом точном измерении магнитного поля Сатурна, что позволит раскрыть немало секретов не только об этом удивительном гиганте, но и о Солнечной системе в целом.


Страна: Великобритания
Студия: BBC Studios
Продолжительность: 00:51:51
Перевод: Профессиональный (двухголосый закадровый) Видеофильм ТВ

Файл
Кодек: AVC/H.264
Качество: DVB
Видео: 720x576@1047x576 (16:9) AVC (H.264) Main@L3.0, ~ 1525 kbps, 25fps
Звук: Русский 48 kHz, MPEG Layer 2, 2 ch, ~192.00 kbps avg

Семпл

Релиз от: kyba
[+] MediaInfo
Complete name               : F:НаладкиSD-фильмыПрощай, Кассини_ Здравствуй, Сатурн!.ts
Format                      : MPEG-TS
File size                   : 671 MiB
Duration                    : 51 min 51 s
Overall bit rate mode       : Variable
Overall bit rate            : 1 808 kb/s

Video
ID                          : 401 (0x191)
Menu ID                     : 2608 (0xA30)
Format                      : AVC
Format/Info                 : Advanced Video Codec
Format profile              : Main@L3
Format settings             : CABAC / 4 Ref Frames
Format settings, CABAC      : Yes
Format settings, Reference  : 4 frames
Format settings, GOP        : M=4, N=28
Codec ID                    : 27
Duration                    : 51 min 51 s
Bit rate                    : 1 525 kb/s
Width                       : 720 pixels
Height                      : 576 pixels
Display aspect ratio        : 16:9
Frame rate                  : 25.000 FPS
Standard                    : Component
Color space                 : YUV
Chroma subsampling          : 4:2:0
Bit depth                   : 8 bits
Scan type                   : Interlaced
Scan type, store method     : Separated fields
Scan order                  : Top Field First
Bits/(Pixel*Frame)          : 0.147
Stream size                 : 566 MiB (84%)
Color range                 : Limited
Color primaries             : BT.601 PAL
Transfer characteristics    : BT.470 System B/G
Matrix coefficients         : BT.470 System B/G

Audio
ID                          : 402 (0x192)
Menu ID                     : 2608 (0xA30)
Format                      : MPEG Audio
Format version              : Version 1
Format profile              : Layer 2
Codec ID                    : 3
Duration                    : 51 min 51 s
Bit rate mode               : Constant
Bit rate                    : 192 kb/s
Channel(s)                  : 2 channels
Sampling rate               : 48.0 kHz
Frame rate                  : 41.667 FPS (1152 SPF)
Compression mode            : Lossy
Delay relative to video     : -120 ms
Stream size                 : 71.2 MiB (11%)
Language                    : Russian



Скриншоты:
[+] Всего файлов в раздаче - 1:
Прощай, Кассини_ Здравствуй, Сатурн!.ts670.84 MB

Показать еще раздачи по запросу horizon:
2019-08-13 U Forza Horizon 4: Ultimate Editio [v 1.332.904.2 + DLCs] (2018) PC | RePack от FitGirl 44.65 GB ↑ 382 ↓ 713
2019-07-30 U BBC Horizon: Витамины: чудо или миф / Vitamin Pills: Miracle or Myth? (2018) HDTVRip 720p | P2 1.38 GB ↑ 69 ↓ 17
2019-07-23 U BBC Horizon: Юпитер раскрывает свои тайны / Jupiter Revealed (2018) DVB | P2 662.68 MB ↑ 69 ↓ 6
2019-03-24 U Forza Horizon 3 (2016) PC | RePack от xatab 28.39 GB ↑ 222 ↓ 217
2019-01-24 U Bring Me the Horizon - Amo (2019) MP3 120.64 MB ↑ 173 ↓ 29
2018-11-23 U Землетрясение / The Quake / Skjelvet (2018) WEBRip | Horizon Studio 1.37 GB ↑ 207 ↓ 42
2018-11-11 U Война небес / Heavens War (2018) WEBRip 720p | Horizon Studio 2.16 GB ↑ 86 ↓ 24

Отзывы
Зарегистрируйтесь чтобы добавить комментарий.
Обратная связь
Copyleft ©