↑↓Torrent.by
Поиск
Логин: Регистрация
Пароль: Восстановить пароль
Загрузка...

Жена моего мужа (2018) HDTV 1080p от Generalfilm

Скачать zhena-moego-muzha-2018-hdtv-1080p-ot-generalfilm.torrent
U Магнитная ссылка Размер: 4.51 GB Раздают: 103 Качают: 19 Добавлен: 2019-07-22 16:15:29
Жена моего мужа (2018) HDTV 1080p от Generalfilm

Жена моего мужа


Год выпуска: 2018
Страна: Россия
Жанр: мелодрама
Перевод: Не требуется
Продолжительность: 01:29:19
Режиссер: Артем Каграманян
В ролях: Вера Смолина (Маргарита Полосова), Мария Горбань (Алена Боженова), Евгений Джураев (Максим Шахрин), Тимофей Каратаев (Алексей Полосов), Оксана Голубева (Наташа, лучшая подруга Маргариты), Грант Каграманян (Георгий, продюсер), Екатерина Шмакова (ассистентка Боженовой), Марина Богатова (Таня), Кирилл Щербина (звукорежиссер), Степан Середа (Свердлов), Кирилл Белобородов (Слезкин), Владимир Довжик (кладовщик)

Описание:
В один ужасный день муж Риты уходит от нее к роскошной красотке-телеведущей Алене. Она так и не успевает сказать ему, что ждет ребенка. И после неудачных попыток его вернуть, решает прибегнуть к магии. Рита отправляется к колдуну и загадывает желание: «Хочу быть рядом с моим мужем Алексеем». Ее желание сбывается, однако совсем не так, как она рассчитывала. На следующее утро Рита действительно просыпается рядом с Алексеем, но... в теле Алены!


Качество: HDTV 1080p
Формат: MKV
Видео: AVC, 1920x1080 (16:9), 7050 kbps, 25 fps, 0,136 bpp
Аудио: AC3 / 2.0 / 48 kHz / 192 kbps /

Релиз:


[+] ОтчетМедиаИнфо

General
Unique ID                                : 210885064663022117844317673858974250574 (0x9EA6FC701F637C7688E4C7D65966764E)
Complete name                            : E:Запись с твZhena moego muzha.2018.HDTV 1080p.by.White Smoke.R.G.Generalfilm.mkv
Format                                   : Matroska
Format version                           : Version 4 / Version 2
File size                                : 4.51 GiB
Duration                                 : 1 h 29 min
Overall bit rate mode                    : Constant
Overall bit rate                         : 7 224 kb/s
Movie name                               : Zhena moego muzha.2018.HDTV 1080p.by.White Smoke.R.G.Generalfilm.mkv
Encoded date                             : UTC 2019-07-21 20:00:36
Writing application                      : mkvmerge v6.8.0 ('Theme for Great Cities') 64bit built on Mar  2 2014 21:34:26
Writing library                          : libebml v1.3.0 + libmatroska v1.4.1

Video
ID                                       : 1
Format                                   : AVC
Format/Info                              : Advanced Video Codec
Format profile                           : High@L4.1
Format settings, CABAC                   : Yes
Format settings, ReFrames                : 3 frames
Codec ID                                 : V_MPEG4/ISO/AVC
Duration                                 : 1 h 29 min
Bit rate mode                            : Constant
Bit rate                                 : 7 051 kb/s
Width                                    : 1 920 pixels
Height                                   : 1 080 pixels
Display aspect ratio                     : 16:9
Frame rate mode                          : Constant
Frame rate                               : 25.000 FPS
Standard                                 : PAL
Color space                              : YUV
Chroma subsampling                       : 4:2:0
Bit depth                                : 8 bits
Scan type                                : Progressive
Bits/(Pixel*Frame)                       : 0.136
Stream size                              : 4.30 GiB (95%)
Default                                  : Yes
Forced                                   : No
Color range                              : Limited
Color primaries                          : BT.709
Transfer characteristics                 : BT.709
Matrix coefficients                      : BT.709

Audio
ID                                       : 2
Format                                   : AC-3
Format/Info                              : Audio Coding 3
Mode extension                           : CM (complete main)
Format settings, Endianness              : Big
Codec ID                                 : A_AC3
Duration                                 : 1 h 29 min
Bit rate mode                            : Constant
Bit rate                                 : 192 kb/s
Channel(s)                               : 2 channels
Channel positions                        : Front: L R
Sampling rate                            : 48.0 kHz
Frame rate                               : 31.250 FPS (1536 spf)
Compression mode                         : Lossy
Stream size                              : 123 MiB (3%)
Default                                  : Yes
Forced                                   : No



Скриншоты:
[+] Всего файлов в раздаче - 1:
Zhena moego muzha.2018.HDTV 1080p.by.White Smoke.R.G.Generalfilm.mkv4.51 GB

Показать еще раздачи по запросу жена:
2019-07-26 U Жена по обмену [01-04 из 04] (2018) WEB-DLRip от Files-x 2.35 GB ↑ 52 ↓ 21
2019-07-25 U Жена моего мужа (2018) HDTVRip от Portablius 745.79 MB ↑ 59 ↓ 10
2019-07-22 U Жена моего мужа (2018) WEBRip-AVC от Files-x 1.37 GB ↑ 58 ↓ 27
2019-07-22 U Жена моего мужа (2018) HDTVRip 720p от ExKinoRay 2.62 GB ↑ 96 ↓ 24
2019-07-21 U Жена моего мужа (2018) WEBRip от Files-x 1.37 GB ↑ 107 ↓ 78
2018-12-23 U Жена – не стена (2018) SATRip 1.15 GB ↑ 209 ↓ 71
2018-02-11 U Жена путешественника во времени / The Time Traveler's Wife (2009) BDRip 720p от NNNB 4.37 GB ↑ 315 ↓ 28

Отзывы
Зарегистрируйтесь чтобы добавить комментарий.
Обратная связь
Copyleft ©