↑↓Torrent.by
Поиск
Логин: Регистрация
Пароль: Восстановить пароль

Затерянные во льдах / Arctic (2018) BDRip-AVC от OlLanDGroup | D, P | iTunes

Скачать zateryannye-vo-ldah-arctic-2018-bdrip-avc-ot-ollandgroup-d-p-itunes.torrent
U Магнитная ссылка Размер: 1.93 GB Раздают: 125 Качают: 22 Добавлен: 2019-07-23 19:01:16
Затерянные во льдах / Arctic (2018) BDRip-AVC от OlLanDGroup | D, P | iTunes

Затерянные во льдах / Arctic
«Survival is its own journey»

Год выпуска: 2018
Страна: Исландия
Производство: Armory Films, Pegasus Pictures, Union Entertainment Group
Жанр:  Драма, приключения

Режиссёр: Джо Пенна
В ролях: Мадс Миккельсен, Мария Тельма Смарадоттир

Перевод: Дублированный | [iTunes], Профессиональный многоголосый | [HDRezka Studio]
Субтитры: Русские (полные), Английские (полные, SDH)
Реклама: Отсутствует

Описание: В арктической пустыне — ледяной, снежной, оторванной от мира, где температура воздуха может опускаться до 70⁰С, Хаксли, пилот потерпевшего крушение самолёта, отчаянно борется за жизнь. Он научился справляться с холодом, охотиться, чтобы прокормить себя. В этих условиях ему предстоит заботиться о спасательнице, которая попала в шторм и разбилась. Девушка серьёзно ранена, времени ждать помощи нет: Хаксли вместе с умирающей отправляется в путь.

Качество: BDRip-AVC | BDRemux | Arctic.2018.1080p.BluRay.REMUX.AVC.DTS-HD.MA.5.1-FGT
Продолжительность: 01:38:06

Формат: MKV
Видео кодек: MPEG-4 AVC
Аудио кодек: AC3
Видео: 1024x428 (2.40:1), 23,976 fps, x264 ~1 788 kbps avg, 0.170 bit/pixel
Аудио #1: 48 kHz, AC3 Dolby Digital, 3/2 (L,C,R,l,r) + LFE ch, ~384.00 kbps avg | RUS (iTunes)
Аудио #2: 48 kHz, AC3 Dolby Digital, 2 (L,R) ch, ~192.00 kbps avg | RUS (HDRezka Studio)
Аудио #3: 48 kHz, AC3 Dolby Digital, 3/2 (L,C,R,l,r) + LFE ch, ~448.00 kbps avg | ENG

Дата премьеры (мир): 10 мая 2018
Дата премьеры (РФ): 21 февраля 2019, «Планета Информ»
Цифровой релиз: 21 мая 2019, «Планета информ»

Релиз:


[+] MediaInfo

Общее
Уникальный идентификатор                 : 153631207499977354003616638878412633684 (0x73944B56B2B491303C0F11BF2EE6F654)
Полное имя                               : F:OlLanDGroupArctic.2018.BDRip(AVC).OlLanDGroup.mkv
Формат                                   : Matroska
Версия формата                           : Version 4 / Version 2
Размер файла                             : 1,93 Гбайт
Продолжительность                        : 1 ч. 38 м.
Общий поток                              : 2813 Кбит/сек
Название фильма                          : Arctic.2018   #TorpedoUK#
Описание                                 : В арктической пустыне — ледяной, снежной, оторванной от мира — где температура воздуха может опускаться до 70⁰С, Хаксли, пилот потерпевшего крушение вертолета, отчаянно борется за жизнь. Он научился справляться с холодом, охотиться, чтобы прокормить себя. В этих условиях ему предстоит заботиться о случайной попутчице, с которой его свела судьба. Двое на краю земли — их ждет опасное путешествие и серьезная битва за выживание.
Дата кодирования                         : UTC 2019-07-22 17:34:05
Программа кодирования                    : mkvmerge v29.0.0 ('Like It Or Not') 64-bit
Библиотека кодирования                   : libebml v1.3.6 + libmatroska v1.4.9 / Lavf58.20.100
ACTORS                                   : Mads Mikkelsen, Maria Thelma Smáradóttir
COUNTRY                                  : Iceland
DIRECTOR                                 : Joe Penna
GENRE                                    : Триллер, Драма, Приключения
Язык                                     : und
ORIGINAL_TITLE                           : Arctic
PUBLISHER                                : Armory Films, Pegasus Pictures, Union Entertainment Group
RATING                                   : 6.40
WRITER                                   : Ryan Morrison, Joe Penna

Видео
Идентификатор                            : 1
Формат                                   : AVC
Формат/Информация                        : Advanced Video Codec
Профиль формата                          : High@L4.1
Параметр CABAC формата                   : Да
Параметр ReFrames формата                : 10 кадров
Идентификатор кодека                     : V_MPEG4/ISO/AVC
Продолжительность                        : 1 ч. 38 м.
Битрейт                                  : 1788 Кбит/сек
Ширина                                   : 1024 пикселя
Высота                                   : 428 пикселей
Соотношение сторон                       : 2,40:1
Режим частоты кадров                     : Постоянный
Частота кадров                           : 23,976 (24000/1001) кадра/сек
Цветовое пространство                    : YUV
Субдискретизация насыщенности            : 4:2:0
Битовая глубина                          : 8 бит
Тип развёртки                            : Прогрессивная
Бит/(Пиксели*Кадры)                      : 0.170
Размер потока                            : 1,23 Гбайт (64%)
Библиотека кодирования                   : x264 core 146 r2538 121396c
Настройки программы                      : cabac=1 / ref=10 / deblock=1:-3:-3 / analyse=0x3:0x113 / me=umh / subme=11 / psy=1 / psy_rd=1.00:0.03 / mixed_ref=1 / me_range=48 / chroma_me=1 / trellis=2 / 8x8dct=1 / cqm=0 / deadzone=21,11 / fast_pskip=1 / chroma_qp_offset=-3 / threads=6 / lookahead_threads=1 / sliced_threads=0 / nr=0 / decimate=1 / interlaced=0 / bluray_compat=0 / constrained_intra=0 / bframes=11 / b_pyramid=2 / b_adapt=2 / b_bias=0 / direct=3 / weightb=1 / open_gop=0 / weightp=2 / keyint=240 / keyint_min=23 / scenecut=40 / intra_refresh=0 / rc_lookahead=40 / rc=2pass / mbtree=0 / bitrate=1788 / ratetol=1.0 / qcomp=0.60 / qpmin=0 / qpmax=69 / qpstep=4 / cplxblur=20.0 / qblur=0.5 / vbv_maxrate=50000 / vbv_bufsize=62500 / nal_hrd=none / filler=0 / ip_ratio=1.40 / pb_ratio=1.30 / aq=1:1.00
Язык                                     : English
Default                                  : Да
Forced                                   : Нет

Аудио #1
Идентификатор                            : 2
Формат                                   : AC-3
Формат/Информация                        : Audio Coding 3
Расширение режима                        : CM (complete main)
Параметр Endianness формата              : Big
Идентификатор кодека                     : A_AC3
Продолжительность                        : 1 ч. 38 м.
Вид битрейта                             : Постоянный
Битрейт                                  : 384 Кбит/сек
Каналы                                   : 6 каналов
Расположение каналов                     : Front: L C R, Side: L R, LFE
Частота                                  : 48,0 КГц
Частота кадров                           : 31,250 кадров/сек (1536 spf)
Битовая глубина                          : 16 бит
Метод сжатия                             : С потерями
Размер потока                            : 269 Мбайт (14%)
Заголовок                                : DUB [iTunes]
Язык                                     : Russian
Default                                  : Да
Forced                                   : Нет

Аудио #2
Идентификатор                            : 3
Формат                                   : AC-3
Формат/Информация                        : Audio Coding 3
Расширение режима                        : CM (complete main)
Параметр Endianness формата              : Big
Идентификатор кодека                     : A_AC3
Продолжительность                        : 1 ч. 38 м.
Вид битрейта                             : Постоянный
Битрейт                                  : 192 Кбит/сек
Каналы                                   : 2 канала
Расположение каналов                     : Front: L R
Частота                                  : 48,0 КГц
Частота кадров                           : 31,250 кадров/сек (1536 spf)
Битовая глубина                          : 16 бит
Метод сжатия                             : С потерями
Размер потока                            : 135 Мбайт (7%)
Заголовок                                : MVO [HDRezka Studio]
Язык                                     : Russian
Default                                  : Нет
Forced                                   : Нет

Аудио #3
Идентификатор                            : 4
Формат                                   : AC-3
Формат/Информация                        : Audio Coding 3
Расширение режима                        : CM (complete main)
Параметр Endianness формата              : Big
Идентификатор кодека                     : A_AC3
Продолжительность                        : 1 ч. 38 м.
Вид битрейта                             : Постоянный
Битрейт                                  : 448 Кбит/сек
Каналы                                   : 6 каналов
Расположение каналов                     : Front: L C R, Side: L R, LFE
Частота                                  : 48,0 КГц
Частота кадров                           : 31,250 кадров/сек (1536 spf)
Битовая глубина                          : 16 бит
Метод сжатия                             : С потерями
Размер потока                            : 314 Мбайт (16%)
Заголовок                                : [Original]
Язык                                     : English
Default                                  : Нет
Forced                                   : Нет

Текст #1
Идентификатор                            : 5
Формат                                   : UTF-8
Идентификатор кодека                     : S_TEXT/UTF8
Идентификатор кодека/Информация          : UTF-8 Plain Text
Продолжительность                        : 1 ч. 31 м.
Битрейт                                  : 5 бит/сек
Count of elements                        : 132
Размер потока                            : 3,76 Кбайт (0%)
Заголовок                                : Full
Язык                                     : Russian
Default                                  : Нет
Forced                                   : Нет

Текст #2
Идентификатор                            : 6
Формат                                   : UTF-8
Идентификатор кодека                     : S_TEXT/UTF8
Идентификатор кодека/Информация          : UTF-8 Plain Text
Продолжительность                        : 1 ч. 25 м.
Битрейт                                  : 2 бит/сек
Count of elements                        : 127
Размер потока                            : 1,87 Кбайт (0%)
Заголовок                                : Full
Язык                                     : English
Default                                  : Нет
Forced                                   : Нет

Текст #3
Идентификатор                            : 7
Формат                                   : UTF-8
Идентификатор кодека                     : S_TEXT/UTF8
Идентификатор кодека/Информация          : UTF-8 Plain Text
Продолжительность                        : 1 ч. 31 м.
Битрейт                                  : 6 бит/сек
Count of elements                        : 312
Размер потока                            : 4,54 Кбайт (0%)
Заголовок                                : SDH
Язык                                     : English
Default                                  : Нет
Forced                                   : Нет

Меню
00:00:00.000                             : :00:00:00.000
00:05:09.893                             : :00:05:09.893
00:09:31.112                             : :00:09:31.112
00:14:27.033                             : :00:14:27.033
00:20:48.289                             : :00:20:48.289
00:23:42.254                             : :00:23:42.254
00:30:56.229                             : :00:30:56.229
00:37:04.639                             : :00:37:04.639
00:42:31.632                             : :00:42:31.632
00:48:00.127                             : :00:48:00.127
00:50:30.819                             : :00:50:30.819
00:56:30.095                             : :00:56:30.095
01:02:47.430                             : :01:02:47.430
01:06:19.684                             : :01:06:19.684
01:10:20.258                             : :01:10:20.258
01:13:42.501                             : :01:13:42.501
01:18:53.270                             : :01:18:53.270
01:22:54.928                             : :01:22:54.928
01:26:28.725                             : :01:26:28.725
01:32:47.645                             : :01:32:47.645



Скриншоты:
[+] Всего файлов в раздаче - 1:
Arctic.2018.BDRip(AVC).OlLanDGroup.mkv1.93 GB

Отзывы
Зарегистрируйтесь чтобы добавить комментарий.
Обратная связь
Copyleft ©