↑↓Torrent.by
Поиск
Логин: Регистрация
Пароль: Восстановить пароль
Загрузка...

Крик тишины (2019) DVDRip-AVC от ExKinoRay | Лицензия

Скачать krik-tishiny-2019-dvdrip-avc-ot-exkinoray-licenziya.torrent
U Магнитная ссылка Размер: 2.10 GB Раздают: 56 Качают: 30 Добавлен: 2019-07-23 19:01:52
Крик тишины (2019) DVDRip-AVC от ExKinoRay | Лицензия

Год выпуска: 2019
Жанр:  Военный, драма, социальная драма, экранизация
Режиссер: Владимир Потапов
В ролях: Алина Саргина, Лева Гиршов, Артём Быстров, Светлана Смирнова-Марцинкевич, Владимир Меньшов, Надежда Маркина, Людмила Егорова, Наталия Фиссон, Сергей Паршин, Мария Кононова, Александр Жданов, Дарья Анишина, Владимир Потапов, Николай Клочьев, Александра Никитина, Александр Гаврилов, Евгений Серзин

О фильме: Блокадный Ленинград. Февраль 1942 года. Заканчивается самая страшная блокадная зима. Нина Воронова совсем отчаялась. Ее трёхлетний сын Митя ослабел, а карточки на хлеб уже отоварены на два дня вперед. Последняя надежда — эвакуация. Но с маленьким детьми не берут. Тогда женщина идет на чудовищный шаг — эвакуируется, оставив сына одного в промерзшей квартире. Во время налета мальчика спасает девочка-подросток Катя. Девочка выдает Митю за своего брата и обещает себе сделать все, чтобы Митя выжил. Несмотря ни на что…

Выпущено: Россия, Мосфильм
Продолжительность: 01:36:50
Язык: Русский

Формат: MKV
Качество: DVDRip-AVC
Видео: MPEG-4 AVC, 720x568@1024x568 (16:9), 25.000 fps, 2790 Kbps, 0.273 bit/pixel
Аудио : 48 kHz, AC3, 5.1, 320 Kbps | R5 |

Сравнение HDTVRip-AVC VS DVDRip-AVC

Релиз:

Автор релиза:


[+] ОтчетМедиаИнфо

x264 [info]: frame I:1211    Avg QP:18.81  size: 51498
x264 [info]: frame P:42695   Avg QP:20.07  size: 28125
x264 [info]: frame B:112567  Avg QP:21.05  size:  9100
_____________________________________________________________________
General
Unique ID                                : 248220379914234636094176647939876136222 (0xBABD81997EC1DA7583FC1A7850D7251E)
Complete name                            : D:Крик.тишины.2019.DVDRip..AVC.ExKinoRay.mkv
Format                                   : Matroska
Format version                           : Version 2
File size                                : 2.10 GiB
Duration                                 : 1 h 36 min
Overall bit rate                         : 3 112 kb/s
Movie name                               : Крик тишины 2019 from ExKinoRay
Encoded date                             : UTC 2019-07-22 21:42:53
Writing application                      : mkvmerge v5.6.0 ('Kenya Kane') built on May 27 2012 16:44:04
Writing library                          : libebml v1.2.3 + libmatroska v1.3.0

Video
ID                                       : 1
Format                                   : AVC
Format/Info                              : Advanced Video Codec
Format profile                           : High@L4.1
Format settings, CABAC                   : Yes
Format settings, ReFrames                : 12 frames
Codec ID                                 : V_MPEG4/ISO/AVC
Duration                                 : 1 h 36 min
Bit rate                                 : 2 790 kb/s
Width                                    : 720 pixels
Height                                   : 568 pixels
Display aspect ratio                     : 16:9
Frame rate mode                          : Constant
Frame rate                               : 25.000 FPS
Color space                              : YUV
Chroma subsampling                       : 4:2:0
Bit depth                                : 8 bits
Scan type                                : Progressive
Bits/(Pixel*Frame)                       : 0.273
Stream size                              : 1.85 GiB (88%)
Title                                    : Enigma
Writing library                          : x264 core 152 r2851 ba24899
Encoding settings                        : cabac=1 / ref=12 / deblock=1:-2:-2 / analyse=0x3:0x113 / me=umh / subme=10 / psy=1 / psy_rd=1.00:0.00 / mixed_ref=1 / me_range=32 / chroma_me=1 / trellis=2 / 8x8dct=1 / cqm=0 / deadzone=21,11 / fast_pskip=0 / chroma_qp_offset=-2 / threads=12 / lookahead_threads=2 / sliced_threads=0 / nr=0 / decimate=0 / interlaced=0 / bluray_compat=0 / constrained_intra=0 / bframes=9 / b_pyramid=2 / b_adapt=2 / b_bias=0 / direct=3 / weightb=1 / open_gop=0 / weightp=2 / keyint=250 / keyint_min=25 / scenecut=40 / intra_refresh=0 / rc=2pass / mbtree=0 / bitrate=2790 / ratetol=1.0 / qcomp=0.60 / qpmin=0 / qpmax=51 / qpstep=4 / cplxblur=20.0 / qblur=0.5 / ip_ratio=1.30 / pb_ratio=1.20 / aq=1:1.00
Language                                 : English
Default                                  : Yes
Forced                                   : No
Color range                              : Limited
Color primaries                          : BT.601 PAL
Transfer characteristics                 : BT.470 System B, BT.470 System G
Matrix coefficients                      : BT.601

Audio
ID                                       : 2
Format                                   : AC-3
Format/Info                              : Audio Coding 3
Mode extension                           : CM (complete main)
Format settings, Endianness              : Big
Codec ID                                 : A_AC3
Duration                                 : 1 h 36 min
Bit rate mode                            : Constant
Bit rate                                 : 320 kb/s
Channel(s)                               : 6 channels
Channel positions                        : Front: L C R, Side: L R, LFE
Sampling rate                            : 48.0 kHz
Frame rate                               : 31.250 FPS (1536 spf)
Compression mode                         : Lossy
Stream size                              : 222 MiB (10%)
Title                                    : R5
Language                                 : Russian
Default                                  : Yes
Forced                                   : No

Menu
00:00:00.000                             : :Chapter 01
00:11:47.200                             : :Chapter 02
00:20:05.000                             : :Chapter 03
00:29:59.840                             : :Chapter 04
00:40:30.720                             : :Chapter 05
00:49:22.920                             : :Chapter 06
00:59:14.600                             : :Chapter 07
01:09:06.560                             : :Chapter 08
01:18:17.800                             : :Chapter 09
01:26:37.720                             : :Chapter 10
01:36:48.920                             : :Chapter 11




Скриншоты:
[+] Всего файлов в раздаче - 1:
Крик.тишины.2019.DVDRip..AVC.ExKinoRay.mkv2.10 GB

Похожие раздачи по запросу - крик:
2019-07-23 U Крик тишины (2019) DVDRip от ExKinoRay | Лицензия 1.38 GB ↑ 346 ↓ 71
2019-01-30 U Крик тишины (2019) HDTVRip от Generalfilm | КПК 368.03 MB ↑ 83 ↓ 23
2019-01-28 U Крик тишины (2019) HDTVRip от Files-x 1.37 GB ↑ 373 ↓ 63
2019-01-28 U Крик тишины (2019) HDTV 1080i 5.17 GB ↑ 306 ↓ 91
2019-01-28 U Крик тишины (2019) SATRip 1.37 GB ↑ 573 ↓ 90
2013-11-14 U Крик совы / Особые полномочия / Серии: 1-10 из 10 [2013, Детектив, HDTVRip] 5К4.12 GB ↑ 69 ↓ 7

Отзывы
Зарегистрируйтесь чтобы добавить комментарий.
Обратная связь
Copyleft ©