↑↓Torrent.by
Поиск
Логин: Регистрация
Пароль: Восстановить пароль
Загрузка...

Искусство обмана / Lying and Stealing (2019) WEB-DL 1080p от OlLanDGroup | P

Скачать iskusstvo-obmana-lying-and-stealing-2019-web-dl-1080p-ot-ollandgroup-p.torrent
U Магнитная ссылка Размер: 5.24 GB Раздают: 824 Качают: 338 Добавлен: 2019-07-24 19:36:50
Искусство обмана / Lying and Stealing (2019) WEB-DL 1080p от OlLanDGroup | P

Искусство обмана / Lying and Stealing

Год выпуска: 2019
Страна: США
Производство: Vertical Entertainment, COTA Films, Fifty Degrees Entertainment
Жанр:  Комедия, криминал

Режиссёр: Мэтт Аселтон
В ролях: Тео Джеймс, Эмили Ратаковски, Арис Альварадо, Фернанда Андраде, Тим Бейдер, Джо Букаро III, Род Чауки, Рэй Рэй Чейз, Миа Чунг, Фрэнк Клем

Перевод: Профессиональный (многоголосый, закадровый) | [HDRezka Studio]
Субтитры: Английские (полные, SDH)
Реклама: Отсутствует

Описание: Он — эксперт по искусству, вернее… его хищению. Она — модель с задатками актрисы и высоким IQ. Оба любят деньги и риск. Они просто созданы друг для друга… или это лишь фасад, чтобы провернуть изысканную и виртуозную аферу, больше похожую на арт-перформанс?

Качество: WEB-DL 1080p | AMZN Version |
Продолжительность: 01:40:17

Формат: MKV
Видео кодек: MPEG-4 AVC
Аудио кодек: AC3
Видео: 1920x1080 (16:9), 24,000 fps, x264 ~6 644 kbps avg, 0.134 bit/pixel
Аудио #1: 48 kHz, AC3 Dolby Digital, 2 (L,R) ch, ~192.00 kbps avg | RUS (HDRezka Studio)
Аудио #2: 48 kHz, E-AC3 Dolby Digital, 3/2 (L,C,R,l,r) + LFE ch, ~640.00 kbps avg | ENG

Дата премьеры (мир): 21 марта 2019
Дата премьеры (РФ): 18 июля 2019, «MEGOGO Distribution»

Релиз:


[+] MediaInfo

Общее
Уникальный идентификатор                 : 280066982578804277947880322541402188826 (0xD2B2F05664E573FAC109A0D4FE17EC1A)
Полное имя                               : F:OlLanDGroupLying.and.Stealing.2019.AMZN.WEB-DL(1080p).OllanDGroup.mkv
Формат                                   : Matroska
Версия формата                           : Version 4 / Version 2
Размер файла                             : 5,24 Гбайт
Продолжительность                        : 1 ч. 40 м.
Общий поток                              : 7476 Кбит/сек
Название фильма                          : Lying.and.Stealing.2019   #TorpedoUK#
Дата кодирования                         : UTC 2019-07-24 08:23:46
Программа кодирования                    : mkvmerge v29.0.0 ('Like It Or Not') 64-bit
Библиотека кодирования                   : libebml v1.3.6 + libmatroska v1.4.9

Видео
Идентификатор                            : 1
Формат                                   : AVC
Формат/Информация                        : Advanced Video Codec
Профиль формата                          : High@L4
Параметр CABAC формата                   : Да
Параметр ReFrames формата                : 4 кадра
Идентификатор кодека                     : V_MPEG4/ISO/AVC
Продолжительность                        : 1 ч. 40 м.
Вид битрейта                             : Постоянный
Битрейт                                  : 6644 Кбит/сек
Номинальный битрейт                      : 10000 Кбит/сек
Ширина                                   : 1920 пикселей
Высота                                   : 1080 пикселей
Соотношение сторон                       : 16:9
Режим частоты кадров                     : Постоянный
Частота кадров                           : 24,000 кадра/сек
Цветовое пространство                    : YUV
Субдискретизация насыщенности            : 4:2:0
Битовая глубина                          : 8 бит
Тип развёртки                            : Прогрессивная
Бит/(Пиксели*Кадры)                      : 0.134
Размер потока                            : 4,65 Гбайт (89%)
Default                                  : Да
Forced                                   : Нет
Цветовой диапазон                        : Limited
Основные цвета                           : BT.709
Характеристики трансфера                 : BT.709
Коэффициенты матрицы                     : BT.709

Аудио #1
Идентификатор                            : 2
Формат                                   : AC-3
Формат/Информация                        : Audio Coding 3
Расширение режима                        : CM (complete main)
Параметр Endianness формата              : Big
Идентификатор кодека                     : A_AC3
Продолжительность                        : 1 ч. 40 м.
Вид битрейта                             : Постоянный
Битрейт                                  : 192 Кбит/сек
Каналы                                   : 2 канала
Расположение каналов                     : Front: L R
Частота                                  : 48,0 КГц
Частота кадров                           : 31,250 кадров/сек (1536 spf)
Битовая глубина                          : 16 бит
Метод сжатия                             : С потерями
Размер потока                            : 138 Мбайт (3%)
Заголовок                                : MVO [HDRezka Studio]
Язык                                     : Russian
Default                                  : Да
Forced                                   : Нет

Аудио #2
Идентификатор                            : 3
Формат                                   : E-AC-3
Формат/Информация                        : Enhanced Audio Coding 3
Параметр Endianness формата              : Big
Идентификатор кодека                     : A_EAC3
Продолжительность                        : 1 ч. 40 м.
Вид битрейта                             : Постоянный
Битрейт                                  : 640 Кбит/сек
Каналы                                   : 6 каналов
Расположение каналов                     : Front: L C R, Side: L R, LFE
Частота                                  : 48,0 КГц
Частота кадров                           : 187,500 кадров/сек (256 spf)
Метод сжатия                             : С потерями
Размер потока                            : 459 Мбайт (9%)
Заголовок                                : [Original]
Язык                                     : English
Default                                  : Нет
Forced                                   : Нет

Текст #1
Идентификатор                            : 4
Формат                                   : UTF-8
Идентификатор кодека                     : S_TEXT/UTF8
Идентификатор кодека/Информация          : UTF-8 Plain Text
Продолжительность                        : 1 ч. 38 м.
Битрейт                                  : 62 бит/сек
Count of elements                        : 1676
Размер потока                            : 45,0 Кбайт (0%)
Заголовок                                : Full
Язык                                     : English
Default                                  : Нет
Forced                                   : Нет

Текст #2
Идентификатор                            : 5
Формат                                   : UTF-8
Идентификатор кодека                     : S_TEXT/UTF8
Идентификатор кодека/Информация          : UTF-8 Plain Text
Продолжительность                        : 1 ч. 39 м.
Битрейт                                  : 74 бит/сек
Count of elements                        : 2014
Размер потока                            : 54,1 Кбайт (0%)
Заголовок                                : SDH
Язык                                     : English
Default                                  : Нет
Forced                                   : Нет



Скриншоты:
[+] Всего файлов в раздаче - 1:
Lying.and.Stealing.2019.AMZN.WEB-DL(1080p).OllanDGroup.mkv5.24 GB

Показать еще раздачи по запросу искусство:
2019-07-25 U Искусство обмана / Lying and Stealing (2019) WEB-DLRip | HDRezka Studio 743.80 MB ↑ 38 ↓ 13
2019-07-25 U Искусство обмана / Lying and Stealing (2019) WEB-DL-HEVC 1080p | HDRezka Studio 3.34 GB ↑ 65 ↓ 16
2019-07-24 U Искусство обмана / Lying and Stealing (2019) WEB-DLRip-AVC | P | HDRezka Studio 743.20 MB ↑ 168 ↓ 40
2019-07-24 U Искусство обмана / Lying and Stealing (2019) WEB-DLRip-AVC от OlLanDGroup | P 1.46 GB ↑ 203 ↓ 86
2019-07-24 U Искусство обмана / Lying and Stealing (2019) WEB-DLRip от MegaPeer | HDRezka Studio 1.48 GB ↑ 523 ↓ 185
2019-01-23 U Сунь-Цзы - Искусство побеждать (2014) FB2 2.31 MB ↑ 276 ↓ 3
2019-01-21 U Ренат Валеев - Искусство трейдинга. Практические рекомендации для трейдеров с опытом (2018) FB2 5.36 MB ↑ 121 ↓ 8

Отзывы
Зарегистрируйтесь чтобы добавить комментарий.
Обратная связь
Copyleft ©