↑↓Torrent.by
Поиск
Логин: Регистрация
Пароль: Восстановить пароль

Искусство обмана / Lying and Stealing (2019) WEB-DL-HEVC 1080p | HDRezka Studio

Скачать iskusstvo-obmana-lying-and-stealing-2019-web-dl-hevc-1080p-hdrezka-studio.torrent
U Магнитная ссылка Размер: 3.34 GB Раздают: 140 Качают: 18 Добавлен: 2019-07-25 09:06:21
Искусство обмана / Lying and Stealing (2019) WEB-DL-HEVC 1080p | HDRezka Studio

Название: Искусство обмана
Оригинальное название: Lying and Stealing
Год выхода: 2019
Жанр: Комедия, криминал

Режиссер: Мэтт Аселтон

В ролях: Тео Джеймс, Эмили Ратаковски, Арис Альварадо, Фернанда Андраде, Тим Бейдер, Джо Букаро III, Род Чауки, Рэй Рэй Чейз, Миа Чунг, Фрэнк Клем

О фильме: Он — эксперт по искусству, вернее… его хищению. Она — модель с задатками актрисы и высоким IQ. Оба любят деньги и риск. Они просто созданы друг для друга… или это лишь фасад, чтобы провернуть изысканную и виртуозную аферу, больше похожую на арт-перформанс?

Страна: США
Продолжительность: 01:40:17
Перевод: Профессиональный (многоголосый, закадровый) | HDRezka Studio

Файл
Кодек: H.265
Качество: WEB-DL-HEVC 1080p | AMZN Version
Видео: HEVC, 1920x800 (2.40:1), 24.000 fps, 3 938 kb/s, 10 bit
Аудио 1: AC-3, 48.0 kHz, 2 ch, 192 kb/s | RUS
Аудио 2: E-AC-3, 48.0 kHz, 6 ch, 640 kb/s | ENG
Субтитры: Английские (полные, SDH)

Семпл


[+] MI
General
Unique ID                                : 213802835545479570293483300362193397488 (0xA0D8EDA6321407A1B9D4104B950EE6F0)
Complete name                            : Lying.and.Stealing.2019.1080p.AMZN.WEB-DL.HEVC.mkv
Format                                   : Matroska
Format version                           : Version 4
File size                                : 3.34 GiB
Duration                                 : 1 h 40 min
Overall bit rate                         : 4 771 kb/s
Encoded date                             : UTC 2019-07-24 16:36:02
Writing application                      : mkvmerge v8.3.0 ('Over the Horizon') 64bit
Writing library                          : libebml v1.3.1 + libmatroska v1.4.2

Video
ID                                       : 1
Format                                   : HEVC
Format/Info                              : High Efficiency Video Coding
Format profile                           : Main 10@L4.1@High
Codec ID                                 : V_MPEGH/ISO/HEVC
Duration                                 : 1 h 40 min
Bit rate                                 : 3 938 kb/s
Width                                    : 1 920 pixels
Height                                   : 800 pixels
Display aspect ratio                     : 2.40:1
Frame rate mode                          : Constant
Frame rate                               : 24.000 FPS
Color space                              : YUV
Chroma subsampling                       : 4:2:0
Bit depth                                : 10 bits
Bits/(Pixel*Frame)                       : 0.107
Stream size                              : 2.76 GiB (83%)
Language                                 : English
Default                                  : Yes
Forced                                   : No
Color range                              : Limited
Color primaries                          : BT.709
Transfer characteristics                 : BT.709
Matrix coefficients                      : BT.709

Audio #1
ID                                       : 2
Format                                   : AC-3
Format/Info                              : Audio Coding 3
Commercial name                          : Dolby Digital
Codec ID                                 : A_AC3
Duration                                 : 1 h 40 min
Bit rate mode                            : Constant
Bit rate                                 : 192 kb/s
Channel(s)                               : 2 channels
Channel layout                           : L R
Sampling rate                            : 48.0 kHz
Frame rate                               : 31.250 FPS (1536 SPF)
Bit depth                                : 16 bits
Compression mode                         : Lossy
Stream size                              : 138 MiB (4%)
Title                                    : MVO [HDRezka Studio]
Language                                 : Russian
Default                                  : Yes
Forced                                   : No

Audio #2
ID                                       : 3
Format                                   : E-AC-3
Format/Info                              : Enhanced AC-3
Commercial name                          : Dolby Digital Plus
Codec ID                                 : A_EAC3
Duration                                 : 1 h 40 min
Bit rate mode                            : Constant
Bit rate                                 : 640 kb/s
Channel(s)                               : 6 channels
Channel layout                           : L R C LFE Ls Rs
Sampling rate                            : 48.0 kHz
Frame rate                               : 31.250 FPS (1536 SPF)
Compression mode                         : Lossy
Stream size                              : 459 MiB (13%)
Language                                 : English
Default                                  : No
Forced                                   : No

Text #1
ID                                       : 4
Format                                   : UTF-8
Codec ID                                 : S_TEXT/UTF8
Codec ID/Info                            : UTF-8 Plain Text
Duration                                 : 1 h 38 min
Bit rate                                 : 62 b/s
Count of elements                        : 1676
Stream size                              : 45.0 KiB (0%)
Title                                    : Full
Language                                 : English
Default                                  : No
Forced                                   : No

Text #2
ID                                       : 5
Format                                   : UTF-8
Codec ID                                 : S_TEXT/UTF8
Codec ID/Info                            : UTF-8 Plain Text
Duration                                 : 1 h 39 min
Bit rate                                 : 74 b/s
Count of elements                        : 2014
Stream size                              : 54.1 KiB (0%)
Title                                    : SDH
Language                                 : English
Default                                  : No
Forced                                   : No



Скриншоты:
[+] Всего файлов в раздаче - 1:
Lying.and.Stealing.2019.1080p.AMZN.WEB-DL.HEVC.mkv3.34 GB

Показать еще раздачи по запросу искусство:
2019-11-06 U Искусство обмана / Lying and Stealing (2019) BDRip 720p от ExKinoRay | iTunes, P 3.57 GB ↑ 43 ↓ 12
2019-11-04 U Искусство обмана / Lying and Stealing (2019) BDRip | iTunes 2.15 GB ↑ 32 ↓ 13
2019-10-31 U Искусство обмана / Lying and Stealing (2019) BDRip-AVC от OlLanDGroup | iTunes 1.83 GB ↑ 112 ↓ 17
2019-10-31 U Искусство обмана / Lying and Stealing (2019) BDRemux 1080p от селезень | D, P | iTunes 23.17 GB ↑ 35 ↓ 14
2019-10-31 U Искусство обмана / Lying and Stealing (2019) BDRip 1080p от селезень | D, P | iTunes 7.92 GB ↑ 87 ↓ 46
2019-10-31 U Искусство обмана / Lying and Stealing (2019) BDRip от MegaPeer | iTunes 1.41 GB ↑ 303 ↓ 54
2019-09-13 U Искусство обмана / Lying and Stealing (2019) WEB-DLRip-AVC | D | iTunes 740.85 MB ↑ 57 ↓ 18

Отзывы
Зарегистрируйтесь чтобы добавить комментарий.
Обратная связь
Copyleft ©