↑↓Torrent.by
Поиск
Логин: Регистрация
Пароль: Восстановить пароль
Загрузка...

Алита: Боевой ангел / Alita: Battle Angel (2019) BDRip 1080p | 60 fps | Локализованная версия | D, P | Лицензия

Скачать alita-boevoy-angel-battle-2019-bdrip-1080p-60-fps-lokalizovannaya-versiya-d-p-licenziya.torrent
U Магнитная ссылка Размер: 8.55 GB Раздают: 48 Качают: 54 Добавлен: 2019-07-25 09:07:13
Алита: Боевой ангел / Alita: Battle Angel (2019) BDRip 1080p | 60 fps  |  Локализованная версия | D, P | Лицензия

Год выпуска: 2019
Страна: США
Жанр:  Фантастика, боевик, триллер, мелодрама, приключения
Продолжительность: 02:01:58
Перевод: Дубляж, Профессиональный (многоголосый закадровый)

Режиссер: Роберт Родригес

В ролях: Роза Салазар, Кристоф Вальц, Дженнифер Коннелли, Махершала Али, Эд Скрейн, Джеки Эрл Хейли, Кин Джонсон, Хорхе Лендеборг мл., Лана Кондор, Идара Виктор

Описание: Действие фильма происходит через 300 лет после Великой войны в XXVI веке. Доктор Идо находит останки женщины-киборга. После починки киборг ничего не помнит, но обнаруживает, что в состоянии пользоваться боевыми приемами киборгов. Начинаются поиски утерянных воспоминаний.

Качество: BDRip 1080p
Формат: MKV
Видео кодек: H.264
Аудио кодек: DTS, AC3
Видео: AVC, 1920x804 (2.40:1), 7338 kbps, 59,940 fps, 0.079 bpp
Аудио#1: DTS / 5.1 / 48 kHz / 768 kbps / 24 bit | Дубляж - Русский
Аудио#2: AC3 / 5.1 / 48 kHz / 448 kbps / 16 bit | Дубляж - Русский
Аудио#3: AC3 / 2.0 / 48 kHz / 192 kbps / 16 bit | Многоголосый закадровый - Русский [СВ Студия]
Аудио#4: AC3 / 2.0 / 48 kHz / 192 kbps / 16 bit | Многоголосый закадровый - Русский [HDRezka Studio]
Аудио#5: AC3 / 5.1 / 48 kHz / 448 kbps / 16 bit | Дубляж - Украинский
Аудио#6: AC3 / 5.1 / 48 kHz / 640 kbps / 16 bit
Субтитры: Русские (Форс., 2 x Полн.), украинские (Полн.), английские


[+] MediaInfo
General
Unique ID                   : 138660757600588808958596054234022690285 (0x6851172C26A1F05D7C6F03A2D3023DED)
Complete name               : D:Alita_(2019)_BDRip_1080p_60fps.mkv
Format                      : Matroska
Format version              : Version 4
File size                   : 8.55 GiB
Duration                    : 2 h 1 min
Overall bit rate            : 10.0 Mb/s
Movie name                  : Alita_Battle_Angel_2019_by_Tiberiumsun69
Encoded date                : UTC 2019-07-23 19:19:39
Writing application         : mkvmerge v35.0.0 ('All The Love In The World') 64-bit
Writing library             : libebml v1.3.9 + libmatroska v1.5.2
Cover                       : Yes
Attachments                 : Cover.jpg

Video
ID                          : 1
Format                      : AVC
Format/Info                 : Advanced Video Codec
Format profile              : High@L4.1
Format settings             : CABAC / 5 Ref Frames
Format settings, CABAC      : Yes
Format settings, Reference  : 5 frames
Codec ID                    : V_MPEG4/ISO/AVC
Duration                    : 2 h 1 min
Bit rate                    : 7 338 kb/s
Width                       : 1 920 pixels
Height                      : 804 pixels
Display aspect ratio        : 2.40:1
Frame rate mode             : Constant
Frame rate                  : 59.940 (60000/1001) FPS
Color space                 : YUV
Chroma subsampling          : 4:2:0
Bit depth                   : 8 bits
Scan type                   : Progressive
Bits/(Pixel*Frame)          : 0.079
Stream size                 : 6.25 GiB (73%)
Writing library             : x264 core 157 r2958 57baac4
Encoding settings           : cabac=1 / ref=5 / deblock=1:-1:-1 / analyse=0x3:0x113 / me=umh / subme=10 / psy=1 / psy_rd=1.05:0.15 / mixed_ref=1 / me_range=32 / chroma_me=1 / trellis=2 / 8x8dct=1 / cqm=0 / deadzone=21,11 / fast_pskip=0 / chroma_qp_offset=-3 / threads=9 / lookahead_threads=1 / sliced_threads=0 / nr=0 / decimate=1 / interlaced=0 / bluray_compat=0 / constrained_intra=0 / bframes=9 / b_pyramid=2 / b_adapt=2 / b_bias=0 / direct=3 / weightb=1 / open_gop=0 / weightp=2 / keyint=600 / keyint_min=60 / scenecut=40 / intra_refresh=0 / rc_lookahead=60 / rc=crf / mbtree=1 / crf=18.0 / qcomp=0.70 / qpmin=3 / qpmax=69 / qpstep=4 / vbv_maxrate=50000 / vbv_bufsize=62500 / crf_max=30.0 / nal_hrd=none / filler=0 / ip_ratio=1.40 / aq=2:1.00
Language                    : English
Default                     : Yes
Forced                      : No
Color range                 : Limited

Audio #1
ID                          : 2
Format                      : DTS
Format/Info                 : Digital Theater Systems
Codec ID                    : A_DTS
Duration                    : 2 h 1 min
Bit rate mode               : Constant
Bit rate                    : 768 kb/s
Channel(s)                  : 6 channels
Channel layout              : C L R Ls Rs LFE
Sampling rate               : 48.0 kHz
Frame rate                  : 93.750 FPS (512 SPF)
Bit depth                   : 24 bits
Compression mode            : Lossy
Stream size                 : 670 MiB (8%)
Title                       : Dub [License]
Language                    : Russian
Default                     : Yes
Forced                      : Yes

Audio #2
ID                          : 3
Format                      : AC-3
Format/Info                 : Audio Coding 3
Commercial name             : Dolby Digital
Codec ID                    : A_AC3
Duration                    : 2 h 1 min
Bit rate mode               : Constant
Bit rate                    : 448 kb/s
Channel(s)                  : 6 channels
Channel layout              : L R C LFE Ls Rs
Sampling rate               : 48.0 kHz
Frame rate                  : 31.250 FPS (1536 SPF)
Bit depth                   : 16 bits
Compression mode            : Lossy
Stream size                 : 391 MiB (4%)
Title                       : Dub [License]
Language                    : Russian
Service kind                : Complete Main
Default                     : No
Forced                      : No

Audio #3
ID                          : 4
Format                      : AC-3
Format/Info                 : Audio Coding 3
Commercial name             : Dolby Digital
Codec ID                    : A_AC3
Duration                    : 2 h 1 min
Bit rate mode               : Constant
Bit rate                    : 192 kb/s
Channel(s)                  : 2 channels
Channel layout              : L R
Sampling rate               : 48.0 kHz
Frame rate                  : 31.250 FPS (1536 SPF)
Bit depth                   : 16 bits
Compression mode            : Lossy
Stream size                 : 167 MiB (2%)
Title                       : MVO [СВ Студия]
Language                    : Russian
Service kind                : Complete Main
Default                     : No
Forced                      : No

Audio #4
ID                          : 5
Format                      : AC-3
Format/Info                 : Audio Coding 3
Commercial name             : Dolby Digital
Codec ID                    : A_AC3
Duration                    : 2 h 1 min
Bit rate mode               : Constant
Bit rate                    : 192 kb/s
Channel(s)                  : 2 channels
Channel layout              : L R
Sampling rate               : 48.0 kHz
Frame rate                  : 31.250 FPS (1536 SPF)
Bit depth                   : 16 bits
Compression mode            : Lossy
Stream size                 : 167 MiB (2%)
Title                       : MVO [HDRezka Studio]
Language                    : Russian
Service kind                : Complete Main
Default                     : No
Forced                      : No

Audio #5
ID                          : 6
Format                      : AC-3
Format/Info                 : Audio Coding 3
Commercial name             : Dolby Digital
Codec ID                    : A_AC3
Duration                    : 2 h 1 min
Bit rate mode               : Constant
Bit rate                    : 448 kb/s
Channel(s)                  : 6 channels
Channel layout              : L R C LFE Ls Rs
Sampling rate               : 48.0 kHz
Frame rate                  : 31.250 FPS (1536 SPF)
Bit depth                   : 16 bits
Compression mode            : Lossy
Stream size                 : 391 MiB (4%)
Title                       : Dub [License]
Language                    : Ukrainian
Service kind                : Complete Main
Default                     : No
Forced                      : No

Audio #6
ID                          : 7
Format                      : AC-3
Format/Info                 : Audio Coding 3
Commercial name             : Dolby Digital
Codec ID                    : A_AC3
Duration                    : 2 h 1 min
Bit rate mode               : Constant
Bit rate                    : 640 kb/s
Channel(s)                  : 6 channels
Channel layout              : L R C LFE Ls Rs
Sampling rate               : 48.0 kHz
Frame rate                  : 31.250 FPS (1536 SPF)
Bit depth                   : 16 bits
Compression mode            : Lossy
Stream size                 : 558 MiB (6%)
Title                       : Original
Language                    : English
Service kind                : Complete Main
Default                     : No
Forced                      : No

Text #1
ID                          : 8
Format                      : UTF-8
Codec ID                    : S_TEXT/UTF8
Codec ID/Info               : UTF-8 Plain Text
Duration                    : 2 s 544 ms
Bit rate                    : 251 b/s
Count of elements           : 1
Stream size                 : 80.0 Bytes (0%)
Title                       : Forced
Language                    : Russian
Default                     : Yes
Forced                      : Yes

Text #2
ID                          : 9
Format                      : UTF-8
Codec ID                    : S_TEXT/UTF8
Codec ID/Info               : UTF-8 Plain Text
Duration                    : 2 h 1 min
Bit rate                    : 50 b/s
Count of elements           : 1052
Stream size                 : 44.9 KiB (0%)
Title                       : Full [License]
Language                    : Russian
Default                     : No
Forced                      : No

Text #3
ID                          : 10
Format                      : UTF-8
Codec ID                    : S_TEXT/UTF8
Codec ID/Info               : UTF-8 Plain Text
Duration                    : 1 h 56 min
Bit rate                    : 64 b/s
Count of elements           : 1318
Stream size                 : 55.4 KiB (0%)
Title                       : Full [FOCS]
Language                    : Russian
Default                     : No
Forced                      : No

Text #4
ID                          : 11
Format                      : UTF-8
Codec ID                    : S_TEXT/UTF8
Codec ID/Info               : UTF-8 Plain Text
Duration                    : 2 h 1 min
Bit rate                    : 48 b/s
Count of elements           : 1254
Stream size                 : 43.4 KiB (0%)
Title                       : Full [License]
Language                    : Ukrainian
Default                     : No
Forced                      : No

Text #5
ID                          : 12
Format                      : UTF-8
Codec ID                    : S_TEXT/UTF8
Codec ID/Info               : UTF-8 Plain Text
Duration                    : 1 h 55 min
Bit rate                    : 41 b/s
Count of elements           : 1347
Stream size                 : 34.9 KiB (0%)
Title                       : Full
Language                    : English
Default                     : No
Forced                      : No

Text #6
ID                          : 13
Format                      : UTF-8
Codec ID                    : S_TEXT/UTF8
Codec ID/Info               : UTF-8 Plain Text
Duration                    : 1 h 56 min
Bit rate                    : 46 b/s
Count of elements           : 1590
Stream size                 : 39.5 KiB (0%)
Title                       : SDH
Language                    : English
Default                     : No
Forced                      : No

Menu
00:00:00.000                : en:Chapter 01
00:03:28.625                : en:Chapter 02
00:07:51.680                : en:Chapter 03
00:10:07.982                : en:Chapter 04
00:13:06.703                : en:Chapter 05
00:15:06.739                : en:Chapter 06
00:18:04.542                : en:Chapter 07
00:22:58.711                : en:Chapter 08
00:25:35.325                : en:Chapter 09
00:31:40.899                : en:Chapter 10
00:33:29.216                : en:Chapter 11
00:36:32.816                : en:Chapter 12
00:38:30.892                : en:Chapter 13
00:42:05.481                : en:Chapter 14
00:45:58.214                : en:Chapter 15
00:48:31.450                : en:Chapter 16
00:52:57.007                : en:Chapter 17
00:55:14.353                : en:Chapter 18
01:00:39.761                : en:Chapter 19
01:02:56.564                : en:Chapter 20
01:05:16.788                : en:Chapter 21
01:10:50.496                : en:Chapter 22
01:13:37.288                : en:Chapter 23
01:16:35.216                : en:Chapter 24
01:18:52.227                : en:Chapter 25
01:22:48.297                : en:Chapter 26
01:24:55.340                : en:Chapter 27
01:28:25.217                : en:Chapter 28
01:33:18.551                : en:Chapter 29
01:36:08.763                : en:Chapter 30
01:41:54.692                : en:Chapter 31
01:45:23.442                : en:Chapter 32
01:48:16.490                : en:Chapter 33
01:51:43.655                : en:Chapter 34
01:54:43.668                : en:Chapter 35
01:56:51.504                : en:Chapter 36




Скриншоты:
[+] Всего файлов в раздаче - 1:
Alita_(2019)_BDRip_1080p_60fps.mkv8.55 GB

Показать еще раздачи по запросу алита:
2019-08-11 U Алита: Боевой ангел / Alita: Battle Angel (2019) UHD BDRip-HEVC 1440p | HDR | D | Локализованная версия | Лицензия 8.90 GB ↑ 33 ↓ 18
2019-08-11 U Алита: Боевой ангел / Alita: Battle Angel (2019) BDRip от MegaPeer | Локализованная версия | Лицензия 748.09 MB ↑ 30 ↓ 7
2019-07-24 U Алита: Боевой ангел / Alita: Battle Angel (2019) WEB-DLRip-HEVC 720p | D | Open Matte 3.14 GB ↑ 27 ↓ 7
2019-07-20 U Алита: Боевой ангел / Alita: Battle Angel (2019) WEB-DLRip от Scarabey | Лицензия | Open Matte 1.45 GB ↑ 73 ↓ 18
2019-07-19 U Алита: Боевой ангел / Alita: Battle Angel (2019) BDRip 720p от Scarabey | Лицензия 6.06 GB ↑ 94 ↓ 70
2019-07-18 U Алита: Боевой ангел / Alita: Battle Angel (2019) BDRip от Twister & ExKinoRay | Локализованная версия | Лицензия 2.18 GB ↑ 61 ↓ 30
2019-07-16 U Алита: Боевой ангел / Alita: Battle Angel (2019) BDRip 1080p от Ash61 | 3D-Video | halfOU | Лицензия 12.55 GB ↑ 199 ↓ 203

Отзывы
Зарегистрируйтесь чтобы добавить комментарий.
Обратная связь
Copyleft ©