↑↓Torrent.by
Поиск
Логин: Регистрация
Пароль: Восстановить пароль
Загрузка...

Трое с небес: Истории Аркадии / 3 Below: Tales of Arcadia [S01] (2018) WEB-DL 1080p | Пифагор

Скачать troe-s-nebes-istorii-arkadii-3-below-tales-of-arcadia-s01-2018-web-dl-1080p-pifagor.torrent
U Магнитная ссылка Размер: 13.58 GB Раздают: 60 Качают: 44 Добавлен: 2019-07-25 09:07:31
Трое с небес: Истории Аркадии / 3 Below: Tales of Arcadia [S01] (2018) WEB-DL 1080p | Пифагор

Название: Трое с небес: Истории Аркадии
Оригинальное название: 3 Below: Tales of Arcadia
Год выхода: 2018
Жанр:  Мультсериал, фантастика, фэнтези
Режиссёр: Йохана Матте, Родриго Блаас, Илэйн Боган, Гильермо дель Торо
Роли озвучивали: Диего Луна, Алон Абутбул, Энди Гарсиа, Кристофер Оби, Стив Альтерман, Эди Мирман, Митч Картер, Джули Фоллс, Джим Пирри

Описание: Инопланетные подростки, члены королевской семьи, спасаясь от захватившего их родную планету диктатора, терпят крушение в Аркадии. Вместе с верным телохранителем они вынуждены скрываться от межгалактических охотников за головами и выживать под видом простых школьников.

Страна: США
Студия: Double Dare You, DreamWorks Animation, DreamWorks Animation Television
Продолжительность: 13 х ~ 00:25:00
Перевод: Профессиональный (дублированный) | Пифагор

Файл
Качество: WEB-DL 1080p
Контейнер: MKV
Видео: MPEG4 AVC, 1920x1080, 23.976 fps, 7500 Кбит/сек
Аудио 1: Russian: E-AC3, 48 KHz, 640 Kbps - Пифагор
Аудио 2: English: E-AC3, 48 KHz, 640 Kbps - Original
Субтитры: Английские (SDH)

Релиз:


[+] Список серий
01 Терра инкогнита: часть 1 | Terra Incognita (1)
02 Терра инкогнита: часть 2 | Terra Incognita (2)
03 Мысль, управляющая материей | Mind Over Matter
04 Жукомания | Beetle Mania
05 Встречный курс | Collision Course
06 Д-Ажа-вю | D'aja Vu
07 Птичка улетела | Flying the Coop
08 Незваные гости | Party Crashers
09 Молния в банке | Lightning in a Bottle
10 Дело в Аркадии | The Arcadian Job
11 Правда | Truth Be Told
12 Последний вечер на Земле | Last Night on Earth
13 Злобный Омен | Bad Omen



[+] MediaInfo
Общее
Полное имя                               : 3Below.Tales.of.Arcadia.S01.1080p.WEB-DL.DUB.EniaHD3Below.Tales.of.Arcadia.S01E01.Terra.Incognita.1.1080p.WEB-DL.DUB.EniaHD.mkv
Формат                                   : Matroska
Версия формата                           : Version 4
Размер файла                             : 1,38 Гбайт
Продолжительность                        : 23 м. 18 с.
Режим общего битрейта                    : Переменный
Общий поток                              : 8502 Кбит/сек
Название фильма                          : Терра инкогнита: часть 1
Дата кодирования                         : UTC 2019-05-09 15:27:21
Программа кодирования                    : mkvmerge v32.0.0 ('Astral Progressions') 32-bit
Библиотека кодирования                   : libebml v1.3.7 + libmatroska v1.5.0
Обложка                                  : Yes
Attachments                              : cover.3below.tales.of.arcadia.S01.jpg

Видео
Идентификатор                            : 1
Формат                                   : AVC
Формат/Информация                        : Advanced Video Codec
Профиль формата                          : Main@L4
Настройки формата                        : CABAC / 3 Ref Frames
Параметр CABAC формата                   : Да
Параметр RefFrames формата               : 3 кадра
Идентификатор кодека                     : V_MPEG4/ISO/AVC
Продолжительность                        : 23 м. 16 с.
Вид битрейта                             : Переменный
Битрейт                                  : 7500 Кбит/сек
Максимальный битрейт                     : 11,2 Мбит/сек
Ширина                                   : 1920 пикселей
Высота                                   : 1080 пикселей
Соотношение сторон                       : 16:9
Режим частоты кадров                     : Постоянный
Частота кадров                           : 23,976 (24000/1001) кадра/сек
Цветовое пространство                    : YUV
Субдискретизация насыщенности            : 4:2:0
Битовая глубина                          : 8 бит
Тип развёртки                            : Прогрессивная
Бит/(Пиксели*Кадры)                      : 0.151
Размер потока                            : 1,18 Гбайт (85%)
Библиотека кодирования                   : x264 core 148 r2715 7e75228
Настройки программы                      : cabac=1 / ref=3 / deblock=1:0:0 / analyse=0x1:0x111 / me=umh / subme=10 / psy=1 / psy_rd=1.00:0.00 / mixed_ref=1 / me_range=24 / chroma_me=1 / trellis=2 / 8x8dct=0 / cqm=0 / deadzone=21,11 / fast_pskip=1 / chroma_qp_offset=-2 / threads=8 / lookahead_threads=1 / sliced_threads=0 / nr=0 / decimate=1 / interlaced=0 / bluray_compat=0 / stitchable=1 / constrained_intra=0 / bframes=2 / b_pyramid=0 / b_adapt=2 / b_bias=0 / direct=3 / weightb=1 / open_gop=0 / weightp=2 / keyint=48 / keyint_min=25 / scenecut=0 / intra_refresh=0 / rc_lookahead=48 / rc=2pass / mbtree=1 / bitrate=7500 / ratetol=1.0 / qcomp=0.50 / qpmin=6 / qpmax=51 / qpstep=4 / cplxblur=20.0 / qblur=0.5 / vbv_maxrate=11250 / vbv_bufsize=15000 / nal_hrd=vbr / filler=0 / ip_ratio=1.40 / aq=1:1.00
Язык                                     : English
Default                                  : Да
Forced                                   : Нет

Аудио #1
Идентификатор                            : 2
Формат                                   : E-AC-3
Формат/Информация                        : Enhanced AC-3
Коммерческое название                    : Dolby Digital Plus
Идентификатор кодека                     : A_EAC3
Продолжительность                        : 23 м. 18 с.
Вид битрейта                             : Постоянный
Битрейт                                  : 640 Кбит/сек
Каналы                                   : 6 каналов
ChannelLayout                            : L R C LFE Ls Rs
Частота                                  : 48,0 КГц
Частота кадров                           : 31,250 кадров/сек (1536 SPF)
Метод сжатия                             : С потерями
Размер потока                            : 107 Мбайт (8%)
Заголовок                                : E-AC3 5.1 @ 640 kbps - DUB, Pythagor
Язык                                     : Russian
Default                                  : Да
Forced                                   : Нет

Аудио #2
Идентификатор                            : 3
Формат                                   : E-AC-3
Формат/Информация                        : Enhanced AC-3
Коммерческое название                    : Dolby Digital Plus
Идентификатор кодека                     : A_EAC3
Продолжительность                        : 23 м. 16 с.
Вид битрейта                             : Постоянный
Битрейт                                  : 640 Кбит/сек
Каналы                                   : 6 каналов
ChannelLayout                            : L R C LFE Ls Rs
Частота                                  : 48,0 КГц
Частота кадров                           : 31,250 кадров/сек (1536 SPF)
Метод сжатия                             : С потерями
Размер потока                            : 107 Мбайт (8%)
Заголовок                                : E-AC3 5.1 @ 640 kbps - Original
Язык                                     : English
Default                                  : Нет
Forced                                   : Нет

Текст
Идентификатор                            : 4
Формат                                   : UTF-8
Идентификатор кодека                     : S_TEXT/UTF8
Идентификатор кодека/Информация          : UTF-8 Plain Text
Продолжительность                        : 21 м. 36 с.
Битрейт                                  : 75 бит/сек
ElementCount                             : 353
Размер потока                            : 11,9 Кбайт (0%)
Заголовок                                : SDH
Язык                                     : English
Default                                  : Нет
Forced                                   : Нет



Скриншоты:
[+] Всего файлов в раздаче - 13:
3Below.Tales.of.Arcadia.S01E01.Terra.Incognita.1.1080p.WEB-DL.DUB.EniaHD.mkv1.38 GB
3Below.Tales.of.Arcadia.S01E02.Terra.Incognita.2.1080p.WEB-DL.DUB.EniaHD.mkv1.01 GB
3Below.Tales.of.Arcadia.S01E03.Mind.Over.Matter.1080p.WEB-DL.DUB.EniaHD.mkv947.10 MB
3Below.Tales.of.Arcadia.S01E04.Beetle.Mania.1080p.WEB-DL.DUB.EniaHD.mkv1.11 GB
3Below.Tales.of.Arcadia.S01E05.Collision.Course.1080p.WEB-DL.DUB.EniaHD.mkv1,014.08 MB
3Below.Tales.of.Arcadia.S01E07.Flying.the.Coop.1080p.WEB-DL.DUB.EniaHD.mkv1,012.15 MB
3Below.Tales.of.Arcadia.S01E08.Party.Crashers.1080p.WEB-DL.DUB.EniaHD.mkv1.08 GB
3Below.Tales.of.Arcadia.S01E09.Lightning.in.a.Bottle.1080p.WEB-DL.DUB.EniaHD.mkv909.93 MB
3Below.Tales.of.Arcadia.S01E10.The.Arcadian.Job.1080p.WEB-DL.DUB.EniaHD.mkv1.04 GB
3Below.Tales.of.Arcadia.S01E11.Truth.Be.Told.1080p.WEB-DL.DUB.EniaHD.mkv1.07 GB
3Below.Tales.of.Arcadia.S01E12.Last.Night.on.Earth.1080p.WEB-DL.DUB.EniaHD.mkv1.03 GB
3Below.Tales.of.Arcadia.S01E13.Bad.Omen.1080p.WEB-DL.DUB.EniaHD.mkv1.08 GB

Похожие раздачи по запросу - трое:
2019-07-25 U Трое с небес: Истории Аркадии / 3 Below: Tales of Arcadia [S02] (2019) WEB-DL 1080p | Пифагор 13.75 GB ↑ 34 ↓ 16
2013-11-05 U Трое из Простоквашино, Каникулы в Простоквашино, Зима в Простоквашино, Бобик в гостях у Барбоса, Приключения Васи Куролесова BDRip 1.52 GB ↑ 393 ↓ 13

Отзывы
Зарегистрируйтесь чтобы добавить комментарий.
Обратная связь
Copyleft ©