↑↓Torrent.by
Поиск
Логин: Регистрация
Пароль: Восстановить пароль

Бомж с дробовиком / Hobo with a Shotgun (2011) BDRip 720p | Лицензия

Скачать bomzh-s-drobovikom-hobo-with-a-shotgun-2011-bdrip-720p-licenziya.torrent
U Магнитная ссылка Размер: 5.51 GB Раздают: 61 Качают: 21 Добавлен: 2019-07-25 12:24:15
Бомж с дробовиком / Hobo with a Shotgun (2011) BDRip 720p | Лицензия

Название:  Бомж с дробовиком
Оригинальное название:  Hobo with a Shotgun
Год создания: 2011
Жанр:  боевик, триллер, криминал, приключения
Режиссер:  Джейсон Айзенер
В ролях: Рутгер Хауэр, Грегори Смит, Робб Уэллс, Молли Дансуорт, Ник Бейтман, Брайан Дауни, Джереми Акерман, Дэвид Брант, Майкл Фокс, Паша Эбрахими и др.

О фильме: В центре событий бомж, которому надоело наблюдать беспредел творящийся на улицах. В один прекрасный момент чаша его терпения переполняется, он хватает с витрины магазина дробовик и идет наводить справедливость, отстреливая бандитов, коррумпированных копов, педофилов и прочих уродов.

Выпущено: США, Канада / Rhombus Media, Whizbang Films Inc., Yer Dead Productions
Продолжительность: 01:26:00
Перевод #1: Профессиональный (многоголосый) [Лицензия]
Перевод #2: Авторский (одноголосый) [А. Карповский]
Перевод #3: Авторский (одноголосый) [В. Котов]

Файл
Формат: MKV
Качество: BDRip 720p
Видео: 5723 kb/s, 1280x534, 23.976 fps, 2.35:1
Аудио #1: AC3, 384 kb/s, 6 ch, 48 КГц, 16 бит [Проф. многоголосый, R5]
Аудио #2: DTS, 1536 kb/s, 6 ch, 48 КГц, 24 бит [Автор. одноголосый, А. Карповский]
Аудио #3: DTS, 1536 kb/s, 6 ch, 48 КГц, 24 бит [Автор. одноголосый, В. Котов]
Аудио #4: DTS, 1536 kb/s, 6 ch, 48 КГц, 24 бит [Оригинал]
Субтитры: Русские, английские
Размер: 5.51 GB
Скачать: Семпл


[+] Media Info
Код:
Формат                                   : Matroska
Версия формата                           : Version 2
Размер файла                             : 5,51 Гбайт
Продолжительность                        : 1 ч. 26 м.
Общий поток                              : 9118 Кбит/сек
Дата кодирования                         : UTC 2012-04-03 20:32:34
Программа кодирования                    : mkvmerge v5.4.0 ('Piper') built on Mar 10 2012 13:34:39
Библиотека кодирования                   : libebml v1.2.3 + libmatroska v1.3.0

Видео
Идентификатор                            : 1
Формат                                   : AVC
Формат/Информация                        : Advanced Video Codec
Профиль формата                          : High@L4.1
Параметр CABAC формата                   : Да
Параметр ReFrames формата                : 8 кадров
Идентификатор кодека                     : V_MPEG4/ISO/AVC
Продолжительность                        : 1 ч. 26 м.
Битрейт                                  : 5723 Кбит/сек
Ширина                                   : 1280 пикселей
Высота                                   : 534 пикселя
Соотношение сторон                       : 2,40:1
Частота кадров                           : 23,976 кадра/сек
Цветовое пространство                    : YUV
Субдискретизация насыщенности            : 4:2:0
Битовая глубина                          : 8 бит
Тип развёртки                            : Прогрессивная
Бит/(Пиксели*Кадры)                      : 0.349
Размер потока                            : 3,34 Гбайт (61%)
Библиотека кодирования                   : x264 core 98 r1649 c54c47d
Настройки программы                      : cabac=1 / ref=8 / deblock=1:-3:-3 / analyse=0x3:0x113 / me=umh / subme=9 / psy=1 / psy_rd=1.10:0.00 / mixed_ref=1 / me_range=32 / chroma_me=1 / trellis=2 / 8x8dct=1 / cqm=0 / deadzone=21,11 / fast_pskip=0 / chroma_qp_offset=-4 / threads=6 / sliced_threads=0 / nr=0 / decimate=0 / interlaced=0 / constrained_intra=0 / bframes=6 / b_pyramid=2 / b_adapt=2 / b_bias=0 / direct=3 / weightb=1 / weightp=2 / keyint=250 / keyint_min=25 / scenecut=40 / intra_refresh=0 / rc_lookahead=48 / rc=2pass / mbtree=1 / bitrate=5723 / ratetol=1.0 / qcomp=0.60 / qpmin=10 / qpmax=51 / qpstep=4 / cplxblur=20.0 / qblur=0.5 / ip_ratio=1.40 / aq=1:0.80
Default                                  : Да
Forced                                   : Нет

Аудио #1
Идентификатор                            : 2
Формат                                   : AC-3
Формат/Информация                        : Audio Coding 3
Расширение режима                        : CM (complete main)
Идентификатор кодека                     : A_AC3
Продолжительность                        : 1 ч. 26 м.
Вид битрейта                             : Постоянный
Битрейт                                  : 384 Кбит/сек
Каналы                                   : 6 каналов
Расположение каналов                     : Front: L C R, Side: L R, LFE
Частота                                  : 48,0 КГц
Битовая глубина                          : 16 бит
Метод сжатия                             : С потерями
Размер потока                            : 237 Мбайт (4%)
Заголовок                                : MVO
Язык                                     : Russian
Default                                  : Да
Forced                                   : Нет

Аудио #2
Идентификатор                            : 3
Формат                                   : DTS
Формат/Информация                        : Digital Theater Systems
Идентификатор кодека                     : A_DTS
Продолжительность                        : 1 ч. 26 м.
Вид битрейта                             : Постоянный
Битрейт                                  : 755 Кбит/сек
Каналы                                   : 6 каналов
Расположение каналов                     : Front: L C R, Side: L R, LFE
Частота                                  : 48,0 КГц
Битовая глубина                          : 24 бит
Метод сжатия                             : С потерями
Размер потока                            : 467 Мбайт (8%)
Заголовок                                : AVO, Karpovsky
Язык                                     : Russian
Default                                  : Нет
Forced                                   : Нет

Аудио #3
Идентификатор                            : 4
Формат                                   : DTS
Формат/Информация                        : Digital Theater Systems
Идентификатор кодека                     : A_DTS
Продолжительность                        : 1 ч. 26 м.
Вид битрейта                             : Постоянный
Битрейт                                  : 755 Кбит/сек
Каналы                                   : 6 каналов
Расположение каналов                     : Front: L C R, Side: L R, LFE
Частота                                  : 48,0 КГц
Битовая глубина                          : 24 бит
Метод сжатия                             : С потерями
Размер потока                            : 467 Мбайт (8%)
Заголовок                                : AVO, Kotov
Язык                                     : Russian
Default                                  : Нет
Forced                                   : Нет

Аудио #4
Идентификатор                            : 5
Формат                                   : DTS
Формат/Информация                        : Digital Theater Systems
Идентификатор кодека                     : A_DTS
Продолжительность                        : 1 ч. 26 м.
Вид битрейта                             : Постоянный
Битрейт                                  : 1510 Кбит/сек
Каналы                                   : 6 каналов
Расположение каналов                     : Front: L C R, Side: L R, LFE
Частота                                  : 48,0 КГц
Битовая глубина                          : 24 бит
Метод сжатия                             : С потерями
Задержка видео                           : 33 мс.
Размер потока                            : 934 Мбайт (17%)
Язык                                     : English
Default                                  : Нет
Forced                                   : Нет

Текст #1
Идентификатор                            : 6
Формат                                   : UTF-8
Идентификатор кодека                     : S_TEXT/UTF8
Идентификатор кодека/Информация          : UTF-8 Plain Text
Заголовок                                : Plandercozeron
Язык                                     : Russian
Default                                  : Да
Forced                                   : Нет

Текст #2
Идентификатор                            : 7
Формат                                   : UTF-8
Идентификатор кодека                     : S_TEXT/UTF8
Идентификатор кодека/Информация          : UTF-8 Plain Text
Заголовок                                : Plandercozeron, Uncensored
Язык                                     : Russian
Default                                  : Нет
Forced                                   : Нет

Текст #3
Идентификатор                            : 8
Формат                                   : UTF-8
Идентификатор кодека                     : S_TEXT/UTF8
Идентификатор кодека/Информация          : UTF-8 Plain Text
Заголовок                                : Notabenoid, Uncensored
Язык                                     : Russian
Default                                  : Нет
Forced                                   : Нет

Текст #4
Идентификатор                            : 9
Формат                                   : UTF-8
Идентификатор кодека                     : S_TEXT/UTF8
Идентификатор кодека/Информация          : UTF-8 Plain Text
Язык                                     : English
Default                                  : Нет
Forced                                   : Нет



Скриншоты:
[+] Всего файлов в раздаче - 1:
Hobo.with.a.Shotgun.2011.720p.BluRay.3xRus.Eng-WiKi.mkv5.51 GB

Отзывы
Зарегистрируйтесь чтобы добавить комментарий.
Обратная связь
Copyleft ©