↑↓Torrent.by
Поиск
Логин: Регистрация
Пароль: Восстановить пароль

Трое с небес: Истории Аркадии / 3 Below: Tales of Arcadia [S02] (2019) WEB-DL 1080p | Пифагор

Скачать troe-s-nebes-istorii-arkadii-3-below-tales-of-arcadia-s02-2019-web-dl-1080p-pifagor.torrent
U Магнитная ссылка Размер: 13.75 GB Раздают: 41 Качают: 18 Добавлен: 2019-07-25 13:39:57
Трое с небес: Истории Аркадии / 3 Below: Tales of Arcadia [S02] (2019) WEB-DL 1080p | Пифагор

Название: Трое с небес: Истории Аркадии
Оригинальное название: 3 Below: Tales of Arcadia
Год выхода: 2019
Жанр:  Мультсериал, фантастика, фэнтези
Режиссёр: Йохана Матте, Родриго Блаас, Илэйн Боган, Гильермо дель Торо
Роли озвучивали: Диего Луна, Алон Абутбул, Энди Гарсиа, Кристофер Оби, Стив Альтерман, Эди Мирман, Митч Картер, Джули Фоллс, Джим Пирри

Описание: Инопланетные подростки, члены королевской семьи, спасаясь от захватившего их родную планету диктатора, терпят крушение в Аркадии. Вместе с верным телохранителем они вынуждены скрываться от межгалактических охотников за головами и выживать под видом простых школьников.

Страна: США
Студия: Double Dare You, DreamWorks Animation, DreamWorks Animation Television
Продолжительность: 13 х ~ 00:25:00
Перевод: Профессиональный (дублированный) | Пифагор

Файл
Качество: WEB-DL 1080p
Контейнер: MKV
Видео: MPEG4 AVC, 1920x1080, 23.976 fps, 5360 Кбит/сек
Аудио 1: Russian: E-AC3, 48 KHz, 640 Kbps - Пифагор
Аудио 2: English: E-AC3, 48 KHz, 640 Kbps - Original
Субтитры: Русские (Forced, Full), Английские (SDH)

Релиз:


[+] Список серий
01. День переезда | Moving Day
02. Полёт на луну | Moonlight Run
03. Летние собачьи бои | Dogfight Days of Summer
04. День матери | Mother's Day
05. Болезненная жадность | Ill Gotten Gains
06. Подозрительная Гвен |There's Something About Gwen (of Gorbon)
07. Астероидная ярость | Asteroid Rage
08. Выходной Лууга |Luug's Day Out
09. Падение дома Тарронов |The Fall of House Tarron
10. Глубокий сон | The Big Sleep
11. Забег на Рынок Троллей | Race to Trollmarket
12. Славный конец. Часть Первая | A Glorious End, Part One
13. Славный конец. Часть Вторая | | A Glorious End, Part Two



[+] MediaInfo
Общее
Уникальный идентификатор                 : 18782222036839592019996911845091472348 (0xE21530AD943F2E82754671D947A73DC)
Полное имя                               : 3Below.Tales.of.Arcadia.S02.1080p.WEB-DL.DUB.EniaHD3Below.Tales.of.Arcadia.S02E01.Moving.Day.1080p.WEB-DL.DUB.EniaHD.mkv
Формат                                   : Matroska
Версия формата                           : Version 4
Размер файла                             : 1,07 Гбайт
Продолжительность                        : 23 м. 48 с.
Режим общего битрейта                    : Переменный
Общий поток                              : 6456 Кбит/сек
Название фильма                          : День переезда
Дата кодирования                         : UTC 2019-07-13 13:09:22
Программа кодирования                    : mkvmerge v34.0.0 ('Sight and Seen') 64-bit
Библиотека кодирования                   : libebml v1.3.7 + libmatroska v1.5.0
Обложка                                  : Yes
Attachments                              : cover.3below.tales.of.arcadia.S01.jpg

Видео
Идентификатор                            : 1
Формат                                   : AVC
Формат/Информация                        : Advanced Video Codec
Профиль формата                          : Main@L4
Настройки формата                        : CABAC / 3 Ref Frames
Параметр CABAC формата                   : Да
Параметр RefFrames формата               : 3 кадра
Идентификатор кодека                     : V_MPEG4/ISO/AVC
Продолжительность                        : 23 м. 48 с.
Вид битрейта                             : Переменный
Битрейт                                  : 5360 Кбит/сек
Максимальный битрейт                     : 8040 Кбит/сек
Ширина                                   : 1920 пикселей
Высота                                   : 1080 пикселей
Соотношение сторон                       : 16:9
Режим частоты кадров                     : Постоянный
Частота кадров                           : 23,976 (24000/1001) кадра/сек
Цветовое пространство                    : YUV
Субдискретизация насыщенности            : 4:2:0
Битовая глубина                          : 8 бит
Тип развёртки                            : Прогрессивная
Бит/(Пиксели*Кадры)                      : 0.108
Размер потока                            : 881 Мбайт (80%)
Библиотека кодирования                   : x264 core 148 r2715 7e75228
Настройки программы                      : cabac=1 / ref=3 / deblock=1:0:0 / analyse=0x1:0x111 / me=umh / subme=10 / psy=1 / psy_rd=1.00:0.00 / mixed_ref=1 / me_range=24 / chroma_me=1 / trellis=2 / 8x8dct=0 / cqm=0 / deadzone=21,11 / fast_pskip=1 / chroma_qp_offset=-2 / threads=6 / lookahead_threads=1 / sliced_threads=0 / nr=0 / decimate=1 / interlaced=0 / bluray_compat=0 / stitchable=1 / constrained_intra=0 / bframes=2 / b_pyramid=0 / b_adapt=2 / b_bias=0 / direct=3 / weightb=1 / open_gop=0 / weightp=2 / keyint=48 / keyint_min=25 / scenecut=0 / intra_refresh=0 / rc_lookahead=48 / rc=2pass / mbtree=1 / bitrate=5360 / ratetol=1.0 / qcomp=0.50 / qpmin=6 / qpmax=51 / qpstep=4 / cplxblur=20.0 / qblur=0.5 / vbv_maxrate=8040 / vbv_bufsize=10720 / nal_hrd=vbr / filler=0 / ip_ratio=1.40 / aq=1:1.00
Язык                                     : English
Default                                  : Да
Forced                                   : Нет

Аудио #1
Идентификатор                            : 2
Формат                                   : E-AC-3
Формат/Информация                        : Enhanced AC-3
Коммерческое название                    : Dolby Digital Plus
Идентификатор кодека                     : A_EAC3
Продолжительность                        : 23 м. 48 с.
Вид битрейта                             : Постоянный
Битрейт                                  : 640 Кбит/сек
Каналы                                   : 6 каналов
ChannelLayout                            : L R C LFE Ls Rs
Частота                                  : 48,0 КГц
Частота кадров                           : 31,250 кадров/сек (1536 SPF)
Метод сжатия                             : С потерями
Размер потока                            : 109 Мбайт (10%)
Заголовок                                : E-AC3 5.1 @ 640 kbps - DUB, Pythagor
Язык                                     : Russian
Default                                  : Да
Forced                                   : Нет

Аудио #2
Идентификатор                            : 3
Формат                                   : E-AC-3
Формат/Информация                        : Enhanced AC-3
Коммерческое название                    : Dolby Digital Plus
Идентификатор кодека                     : A_EAC3
Продолжительность                        : 23 м. 48 с.
Вид битрейта                             : Постоянный
Битрейт                                  : 640 Кбит/сек
Каналы                                   : 6 каналов
ChannelLayout                            : L R C LFE Ls Rs
Частота                                  : 48,0 КГц
Частота кадров                           : 31,250 кадров/сек (1536 SPF)
Метод сжатия                             : С потерями
Размер потока                            : 109 Мбайт (10%)
Заголовок                                : E-AC3 5.1 @ 640 kbps - Original
Язык                                     : English
Default                                  : Нет
Forced                                   : Нет

Текст #1
Идентификатор                            : 4
Формат                                   : UTF-8
Идентификатор кодека                     : S_TEXT/UTF8
Идентификатор кодека/Информация          : UTF-8 Plain Text
Продолжительность                        : 22 м. 40 с.
Битрейт                                  : 0 бит/сек
ElementCount                             : 4
Размер потока                            : 169 байт (0%)
Заголовок                                : Forced
Язык                                     : Russian
Default                                  : Да
Forced                                   : Да

Текст #2
Идентификатор                            : 5
Формат                                   : UTF-8
Идентификатор кодека                     : S_TEXT/UTF8
Идентификатор кодека/Информация          : UTF-8 Plain Text
Продолжительность                        : 22 м. 40 с.
Битрейт                                  : 116 бит/сек
ElementCount                             : 385
Размер потока                            : 19,3 Кбайт (0%)
Заголовок                                : Full
Язык                                     : Russian
Default                                  : Нет
Forced                                   : Нет

Текст #3
Идентификатор                            : 6
Формат                                   : UTF-8
Идентификатор кодека                     : S_TEXT/UTF8
Идентификатор кодека/Информация          : UTF-8 Plain Text
Продолжительность                        : 22 м. 10 с.
Битрейт                                  : 96 бит/сек
ElementCount                             : 468
Размер потока                            : 15,6 Кбайт (0%)
Заголовок                                : Full SDH
Язык                                     : English
Default                                  : Нет
Forced                                   : Нет



Скриншоты:
[+] Всего файлов в раздаче - 13:
3Below.Tales.of.Arcadia.S02E01.Moving.Day.1080p.WEB-DL.DUB.EniaHD.mkv1.07 GB
3Below.Tales.of.Arcadia.S02E02.Moonlight.Run.1080p.WEB-DL.DUB.EniaHD.mkv1,019.44 MB
3Below.Tales.of.Arcadia.S02E03.Dogfight.Days.of.Summer.1080p.WEB-DL.DUB.EniaHD.mkv1.00 GB
3Below.Tales.of.Arcadia.S02E04.Mothers.Day.1080p.WEB-DL.DUB.EniaHD.mkv1.12 GB
3Below.Tales.of.Arcadia.S02E05.Ill.Gotten.Gains.1080p.WEB-DL.DUB.EniaHD.mkv1.09 GB
3Below.Tales.of.Arcadia.S02E06.Theres.Something.About.Gwen.of.Gorbon.1080p.WEB-DL.DUB.EniaHD.mkv1.04 GB
3Below.Tales.of.Arcadia.S02E07.Asteroid.Rage.1080p.WEB-DL.DUB.EniaHD.mkv1.02 GB
3Below.Tales.of.Arcadia.S02E08.Luugs.Day.Out.1080p.WEB-DL.DUB.EniaHD.mkv1,018.52 MB
3Below.Tales.of.Arcadia.S02E09.The.Fall.of.House.Tarron.1080p.WEB-DL.DUB.EniaHD.mkv1.01 GB
3Below.Tales.of.Arcadia.S02E10.The.Big.Sleep.1080p.WEB-DL.DUB.EniaHD.mkv1.29 GB
3Below.Tales.of.Arcadia.S02E11.Race.to.Trollmarket.1080p.WEB-DL.DUB.EniaHD.mkv1.10 GB
3Below.Tales.of.Arcadia.S02E12.A.Glorious.End.Part.One.1080p.WEB-DL.DUB.EniaHD.mkv958.67 MB
3Below.Tales.of.Arcadia.S02E13.A.Glorious.End.Part.Two.1080p.WEB-DL.DUB.EniaHD.mkv1.08 GB

Похожие раздачи по запросу - трое:
2019-10-23 U Трое из ада / 3 from Hell / Three from Hell (2019) BDRip-AVC | Unrated | L 3.45 GB ↑ 35 ↓ 5
2019-10-21 U Трое из ада / 3 from Hell / Three from Hell (2019) BDRip | Unrated | LakeFilms 1.46 GB ↑ 71 ↓ 54
2019-10-19 U Трое из ада / 3 from Hell / Three from Hell (2019) BDRip 1080p | Unrated | LakeFilms 7.97 GB ↑ 568 ↓ 288
2019-07-25 U Трое с небес: Истории Аркадии / 3 Below: Tales of Arcadia [S01] (2018) WEB-DL 1080p | Пифагор 13.58 GB ↑ 185 ↓ 70

Отзывы
Зарегистрируйтесь чтобы добавить комментарий.
Обратная связь
Copyleft ©