↑↓Torrent.by
Поиск
Логин: Регистрация
Пароль: Восстановить пароль
Загрузка...

Я не такой! Я не такая! (2019) WEB-DL 1080p | iTunes

Скачать ya-ne-takoy-takaya-2019-web-dl-1080p-itunes.torrent
U Магнитная ссылка Размер: 2.89 GB Раздают: 324 Качают: 114 Добавлен: 2019-07-26 07:16:21
Я не такой! Я не такая! (2019) WEB-DL 1080p | iTunes

Название: Я не такой! Я не такая!
Год выпуска: 2019
Жанр:  Комедия, драма
Режиссёр: Руслан Паушу
В ролях: Филипп Рейнхардт, Анна Чурина, Кристина Бабушкина, Рената Пиотровски, Анатолий Руденко, Иван Кокорин, Наталья Лесниковская, Тимур Боканча, Елена Драпеко, Валентина Мазунина

О фильме: Три подруги — Вера, Люба и Надя встречаются в загородном доме, чтобы отметить помолвку Нади, но во время празднования они узнают, что их любимые мужчины пользуются услугами одной и той же проститутки. И кажется, что женский идеальный мир разрушен навсегда. Отчаявшись, девушки решаются вызвать разлучницу на дом под видом клиенток, и девичник обретает совершенно неожиданный поворот.

Выпущено: Россия, Русская Фильм Группа
Продолжительность: 01:23:40
Язык: Русский | iTunes

Файл
Качество: WEB-DL 1080p
Контейнер: MKV
Видео: MPEG-4 AVC, 1920x806, 4462 kbps, 24.000 fps
Аудио: Russian: AC3, 48.0 KHz, 6 ch, 384 kbps - iTunes
Субтитры: Нет


[+] MediaInfo
General
Unique ID                                : 210743295485186000397601169437326951790 (0x9E8BAEAD87FFDE10860CD325E1C5C56E)
Complete name                            : YA.ne.takoj!YA.ne.takaya!2019.WEB-DL.1080p.mkv
Format                                   : Matroska
Format version                           : Version 2
File size                                : 2.89 GiB
Duration                                 : 1 h 23 min
Overall bit rate                         : 4 944 kb/s
Encoded date                             : UTC 2019-07-25 16:58:33
Writing application                      : mkvmerge v5.8.0 ('No Sleep / Pillow') built on Sep  2 2012 15:37:04
Writing library                          : libebml v1.2.3 + libmatroska v1.3.0

Video
ID                                       : 1
Format                                   : AVC
Format/Info                              : Advanced Video Codec
Format profile                           : High@L4
Format settings, CABAC                   : Yes
Format settings, RefFrames               : 5 frames
Codec ID                                 : V_MPEG4/ISO/AVC
Duration                                 : 1 h 23 min
Bit rate                                 : 4 462 kb/s
Width                                    : 1 920 pixels
Height                                   : 806 pixels
Display aspect ratio                     : 2.40:1
Frame rate mode                          : Constant
Frame rate                               : 24.000 FPS
Color space                              : YUV
Chroma subsampling                       : 4:2:0
Bit depth                                : 8 bits
Scan type                                : Progressive
Bits/(Pixel*Frame)                       : 0.120
Stream size                              : 2.61 GiB (90%)
Language                                 : English
Default                                  : Yes
Forced                                   : No
Color range                              : Limited
Color primaries                          : BT.709
Transfer characteristics                 : BT.709
Matrix coefficients                      : BT.709

Audio
ID                                       : 2
Format                                   : AC-3
Format/Info                              : Audio Coding 3
Format settings, Endianness              : Big
Codec ID                                 : A_AC3
Duration                                 : 1 h 23 min
Bit rate mode                            : Constant
Bit rate                                 : 384 kb/s
Channel(s)                               : 6 channels
Channel positions                        : Front: L C R, Side: L R, LFE
Sampling rate                            : 48.0 kHz
Frame rate                               : 31.250 FPS (1536 SPF)
Bit depth                                : 16 bits
Compression mode                         : Lossy
Stream size                              : 230 MiB (8%)
Title                                    : iTunes
Language                                 : Russian
Service kind                             : Complete Main
Default                                  : Yes
Forced                                   : No

Menu
00:00:00.000                             : en:Глава 1
00:06:13.041                             : en:Глава 2
00:13:57.999                             : en:Глава 3
00:20:23.374                             : en:Глава 4
00:25:42.707                             : en:Глава 5
00:32:12.707                             : en:Глава 6
00:38:28.582                             : en:Глава 7
00:45:37.082                             : en:Глава 8
00:51:32.832                             : en:Глава 9
00:58:03.748                             : en:Глава 10
01:04:43.623                             : en:Глава 11
01:12:47.706                             : en:Глава 12



Скриншоты:
[+] Всего файлов в раздаче - 1:
YA.ne.takoj!YA.ne.takaya!2019.WEB-DL.1080p.mkv2.89 GB

Показать еще раздачи по запросу такой:
2019-08-01 U Я не такой! Я не такая! (2019) WEB-DLRip от Portablius | iTunes 745.01 MB ↑ 77 ↓ 16
2019-07-29 U Я не такой! Я не такая! (2019) WEB-DLRip от Files-x | iTunes 1.37 GB ↑ 121 ↓ 35
2019-07-27 U Я не такой! Я не такая! (2019) WEB-DLRip-AVC от ExKinoRay | iTunes 744.88 MB ↑ 103 ↓ 21
2019-07-26 U Я не такой! Я не такая! (2019) WEB-DLRip-AVC от Files-x | iTunes 1.37 GB ↑ 213 ↓ 71
2018-12-19 U Полюби меня такой [01-04 из 04] (2018) WEBRip-AVC от Files-x 2.35 GB ↑ 184 ↓ 76
2018-06-03 U Маша и медведь: Вот такой хоккей [71] (2018) WEB-DLRip от ExKinoRay 59.07 MB ↑ 354 ↓ 10
2018-05-25 U Маша и медведь: Вот такой хоккей [71] (2018) WEB-DLRip-AVC от ExKinoRay 124.65 MB ↑ 262 ↓ 29

Отзывы
Зарегистрируйтесь чтобы добавить комментарий.
Обратная связь
Copyleft ©