↑↓Torrent.by
Поиск
Логин: Регистрация
Пароль: Восстановить пароль
Загрузка...

Большой хак / The Great Hack (2019) WEB-DLRip 1080p от селезень | P

Скачать bolshoy-hak-the-great-hack-2019-web-dlrip-1080p-ot-selezen-p.torrent
U Магнитная ссылка Размер: 6.88 GB Раздают: 125 Качают: 30 Добавлен: 2019-07-28 07:28:48
Большой хак / The Great Hack (2019) WEB-DLRip 1080p от селезень | P

Название: Большой хак
Оригинальное название: The Great Hack
Год выхода: 2019
Жанр: Документальный, научно-познавательный
Режиссер: Карим Амер, Джехен Нужейм
В ролях: Карол Кадуолладр, Джейми Бартлетт, Стивен Бэннон

О фильме: Кэмбридж Аналитика, частная английская компания, которая использует технологии глубинного анализа данных, проводит расследование так называемого - Большого хака - вмешательства крупных информационных корпораций (Гугл, Фейсбук и т.д.) в жизнь человека, их роль в повседневной жизни и, самое главное, ежесекундный шпионаж за каждым из пользователей смартфонов, планшетов и компьютеров.

Страна: США
Продолжительность: 01:54:13
Перевод: Профессиональный многоголосый | Netflix

Качество: WEB-DLRip 1080p
Видео: MPEG-4 AVC, 1920x1080, 7500 Kbit/s, 23.976 fps
Звук:
Аудио #01: 48 kHz, AC3, 5.1, 448 Kbps | Netflix | RUS |
Аудио #02: 48 kHz, E-AC3+Atmos, 5.1, 768 Kbps | Оригинал |  ENG |
Субтитры: Русские (Forced, full), английские

Релиз:


[+] MI
General
Unique ID                   : 56547808635210534608138808172088754169 (0x2A8AB63821BCD68042E0F9F186857FF9)
Complete name               : D:Video111The.Great.Hack.2019.NF.WEB-DL.1080p.seleZen.mkv
Format                      : Matroska
Format version              : Version 4
File size                   : 6.88 GiB
Duration                    : 1 h 54 min
Overall bit rate mode       : Variable
Overall bit rate            : 8 622 kb/s
Movie name                  : The Great Hack 2019 from селезень
Encoded date                : UTC 2019-07-27 13:31:17
Writing application         : mkvmerge v22.0.0 ('At The End Of The World') 64-bit
Writing library             : libebml v1.3.5 + libmatroska v1.4.8

Video
ID                          : 1
Format                      : AVC
Format/Info                 : Advanced Video Codec
Format profile              : Main@L4
Format settings             : CABAC / 3 Ref Frames
Format settings, CABAC      : Yes
Format settings, Reference  : 3 frames
Codec ID                    : V_MPEG4/ISO/AVC
Duration                    : 1 h 54 min
Bit rate mode               : Variable
Bit rate                    : 7 500 kb/s
Maximum bit rate            : 11.2 Mb/s
Width                       : 1 920 pixels
Height                      : 1 080 pixels
Display aspect ratio        : 16:9
Frame rate mode             : Constant
Frame rate                  : 23.976 (24000/1001) FPS
Color space                 : YUV
Chroma subsampling          : 4:2:0
Bit depth                   : 8 bits
Scan type                   : Progressive
Bits/(Pixel*Frame)          : 0.151
Stream size                 : 5.91 GiB (86%)
Writing library             : x264 core 148 r2715 7e75228
Encoding settings           : cabac=1 / ref=3 / deblock=1:0:0 / analyse=0x1:0x111 / me=umh / subme=10 / psy=1 / psy_rd=1.00:0.00 / mixed_ref=1 / me_range=24 / chroma_me=1 / trellis=2 / 8x8dct=0 / cqm=0 / deadzone=21,11 / fast_pskip=1 / chroma_qp_offset=-2 / threads=8 / lookahead_threads=1 / sliced_threads=0 / nr=0 / decimate=1 / interlaced=0 / bluray_compat=0 / stitchable=1 / constrained_intra=0 / bframes=2 / b_pyramid=0 / b_adapt=2 / b_bias=0 / direct=3 / weightb=1 / open_gop=0 / weightp=2 / keyint=250 / keyint_min=23 / scenecut=0 / intra_refresh=0 / rc_lookahead=48 / rc=2pass / mbtree=1 / bitrate=7500 / ratetol=1.0 / qcomp=0.50 / qpmin=6 / qpmax=51 / qpstep=4 / cplxblur=20.0 / qblur=0.5 / vbv_maxrate=11250 / vbv_bufsize=15000 / nal_hrd=vbr / filler=0 / ip_ratio=1.40 / aq=1:1.00
Language                    : English
Default                     : Yes
Forced                      : No

Audio #1
ID                          : 2
Format                      : AC-3
Format/Info                 : Audio Coding 3
Commercial name             : Dolby Digital
Codec ID                    : A_AC3
Duration                    : 1 h 54 min
Bit rate mode               : Constant
Bit rate                    : 448 kb/s
Channel(s)                  : 6 channels
Channel layout              : L R C LFE Ls Rs
Sampling rate               : 48.0 kHz
Frame rate                  : 31.250 FPS (1536 SPF)
Bit depth                   : 16 bits
Compression mode            : Lossy
Stream size                 : 366 MiB (5%)
Title                       : MVO [Netflix]
Language                    : Russian
Service kind                : Complete Main
Default                     : Yes
Forced                      : Yes

Audio #2
ID                          : 3
Format                      : E-AC-3 JOC
Format/Info                 : Enhanced AC-3 with Joint Object Coding
Commercial name             : Dolby Digital Plus with Dolby Atmos
Codec ID                    : A_EAC3
Duration                    : 1 h 54 min
Bit rate mode               : Constant
Bit rate                    : 768 kb/s
Channel(s)                  : 6 channels
Channel layout              : L R C LFE Ls Rs
Sampling rate               : 48.0 kHz
Frame rate                  : 31.250 FPS (1536 SPF)
Compression mode            : Lossy
Stream size                 : 627 MiB (9%)
Title                       : Original
Language                    : English
Service kind                : Complete Main
Default                     : No
Forced                      : No
Complexity index            : 16
Number of dynamic objects   : 15
Bed channel count           : 1 channel
Bed channel configuration   : LFE

Text #1
ID                          : 4
Format                      : UTF-8
Codec ID                    : S_TEXT/UTF8
Codec ID/Info               : UTF-8 Plain Text
Duration                    : 1 h 53 min
Bit rate                    : 21 b/s
Count of elements           : 301
Stream size                 : 18.0 KiB (0%)
Title                       : Forced
Language                    : Russian
Default                     : Yes
Forced                      : Yes

Text #2
ID                          : 5
Format                      : UTF-8
Codec ID                    : S_TEXT/UTF8
Codec ID/Info               : UTF-8 Plain Text
Duration                    : 1 h 53 min
Bit rate                    : 137 b/s
Count of elements           : 1714
Stream size                 : 114 KiB (0%)
Title                       : Full
Language                    : Russian
Default                     : No
Forced                      : No

Text #3
ID                          : 6
Format                      : UTF-8
Codec ID                    : S_TEXT/UTF8
Codec ID/Info               : UTF-8 Plain Text
Duration                    : 1 h 40 min
Bit rate                    : 8 b/s
Count of elements           : 132
Stream size                 : 6.36 KiB (0%)
Title                       : Forced
Language                    : English
Default                     : No
Forced                      : No

Text #4
ID                          : 7
Format                      : UTF-8
Codec ID                    : S_TEXT/UTF8
Codec ID/Info               : UTF-8 Plain Text
Duration                    : 1 h 46 min
Bit rate                    : 90 b/s
Count of elements           : 1611
Stream size                 : 70.8 KiB (0%)
Title                       : Full
Language                    : English
Default                     : No
Forced                      : No

Text #5
ID                          : 8
Format                      : UTF-8
Codec ID                    : S_TEXT/UTF8
Codec ID/Info               : UTF-8 Plain Text
Duration                    : 1 h 47 min
Bit rate                    : 97 b/s
Count of elements           : 1698
Stream size                 : 76.6 KiB (0%)
Title                       : SDH
Language                    : English
Default                     : No
Forced                      : No



Скриншоты:
[+] Всего файлов в раздаче - 1:
The.Great.Hack.2019.NF.WEB-DL.1080p.seleZen.mkv6.88 GB

Показать еще раздачи по запросу большой:
2019-07-27 U Большой хак / The Great Hack (2019) WEB-DLRip-AVC от ExKinoRay | P 2.70 GB ↑ 184 ↓ 44
2019-07-27 U Большой хак / The Great Hack (2019) WEB-DLRip от ExKinoRay | P 1.45 GB ↑ 413 ↓ 94
2019-07-19 U Большой брат / Big Brother / Dai si hing (2018) BDRip-AVC от OlLanDGroup | P 1.40 GB ↑ 50 ↓ 14
2019-07-18 U Большой брат / Big Brother / Dai si hing (2018) BDRip 1080p от OlLanDGroup | HDRezka Studio 8.62 GB ↑ 69 ↓ 37
2019-07-18 U Большой брат / Big Brother / Dai si hing (2018) BDRip от MegaPeer | HDRezka Studio 1.46 GB ↑ 191 ↓ 51
2019-06-11 U Большой кошачий побег / Mao yu tao hua yuan / Cats & Peachtopia (2018) WEB-DLRip 1080p | iTunes 3.21 GB ↑ 34 ↓ 13
2019-05-06 U Большой артист [01-02 из 02] (2019) WEB-DLRip от Files-x 2.75 GB ↑ 157 ↓ 58

Отзывы
brusnichnik
нудная болтовня-пропаганда, частично озвучено, частично с сабами, которые наложены как попало на английские сабы от этого каша читать невозможно

Зарегистрируйтесь чтобы добавить комментарий.
Обратная связь
Copyleft ©