↑↓Torrent.by
Поиск
Логин: Регистрация
Пароль: Восстановить пароль
Загрузка...

Лето (2018) WEB-DLRip | Лицензия

Скачать leto-2018-web-dlrip-licenziya.torrent
U Магнитная ссылка Размер: 1.46 GB Раздают: 87 Качают: 26 Добавлен: 2019-07-28 07:29:35
Лето (2018) WEB-DLRip | Лицензия

Название: Лето
Год выхода: 2018
Жанр: Биография, музыка, драма
Страна: Россия
Перевод: Оригинальный русский язык без цензуры
Продолжительность: 02:08:36
Режиссер: Кирилл Серебренников
В ролях: Рома Зверь, Ирина Старшенбаум, Тео Ю, Филипп Авдеев, Евгений Серзин, Александр Горчилин, Василий Михайлов, Александр Кузнецов, Никита Ефремов, Герман Осипов и др.

О фильме: Фильм рассказывает о самом начале творческого пути Виктора Цоя и группы «Кино», о его взаимоотношениях с Майком Науменко, его женой Натальей и многими, кто был в авангарде рок-движения Ленинграда 1981 года. Это история о Ленинграде 80-х, о любви, поисках и больших надеждах — о настроении, которое останется с нами навсегда.

Файл
Формат: AVI
Качество: WEB-DLRip
Видео: Xvid 73, 704x288, ~1166 kbps, 23,976 fps
Звук: русский, AC3, 5.1 ch, 48 kHz, 448 kbps | Лицензия
Субтитры: нет

Рип и релиз от:


[+] MI
General
Complete name               : C:UtorrentLetoLicWEBDLRip.avi
Format                      : AVI
Format/Info                 : Audio Video Interleave
Format profile              : OpenDML
File size                   : 1.46 GiB
Duration                    : 2 h 8 min
Overall bit rate            : 1 626 kb/s
Writing application         : XviD4PSP 6.0 / 53.6.0

Video
ID                          : 0
Format                      : MPEG-4 Visual
Format profile              : Advanced Simple@L5
Format settings             : BVOP1 / Custom Matrix
Format settings, BVOP       : 1
Format settings, QPel       : No
Format settings, GMC        : No warppoints
Format settings, Matrix     : Custom
Codec ID                    : XVID
Codec ID/Hint               : XviD
Duration                    : 2 h 8 min
Bit rate                    : 1 166 kb/s
Width                       : 704 pixels
Height                      : 288 pixels
Display aspect ratio        : 2.40:1
Frame rate                  : 23.976 (23976/1000) FPS
Color space                 : YUV
Chroma subsampling          : 4:2:0
Bit depth                   : 8 bits
Scan type                   : Progressive
Compression mode            : Lossy
Bits/(Pixel*Frame)          : 0.240
Stream size                 : 1.05 GiB (72%)
Writing library             : XviD 73

Audio
ID                          : 1
Format                      : AC-3
Format/Info                 : Audio Coding 3
Commercial name             : Dolby Digital
Codec ID                    : 2000
Duration                    : 2 h 8 min
Bit rate mode               : Constant
Bit rate                    : 448 kb/s
Channel(s)                  : 6 channels
Channel layout              : L R C LFE Ls Rs
Sampling rate               : 48.0 kHz
Frame rate                  : 31.250 FPS (1536 SPF)
Bit depth                   : 16 bits
Compression mode            : Lossy
Stream size                 : 412 MiB (28%)
Alignment                   : Aligned on interleaves
Interleave, duration        : 32  ms (0.77 video frame)




Скриншоты:
[+] Всего файлов в раздаче - 1:
LetoLicWEBDLRip.avi1.46 GB

Показать еще раздачи по запросу лето:
2019-07-29 U Лето (2018) WEB-DLRip от GeneralFilm | Лицензия 1.46 GB ↑ 130 ↓ 19
2019-07-29 U Лето (2018) WEB-DLRip-AVC от Files-x | Лицензия 2.17 GB ↑ 51 ↓ 18
2019-07-28 U Лето (2018) WEB-DL 1080p | Лицензия 4.64 GB ↑ 67 ↓ 34
2019-06-17 U Сборник - Самые cкачиваемые треки ВКонтакте [Лето] (2019) MP3 849.26 MB ↑ 630 ↓ 158
2019-06-16 U Холодное лето пятьдесят третьего (1987) WEBRip-AVC 1.48 GB ↑ 37 ↓ 6
2019-05-04 U Последнее лето / The Last Summer (2019) WEB-DLRip от MegaPeer | Пифагор 1.46 GB ↑ 215 ↓ 87
2019-02-05 U Лето 84 / Summer of 84 (2018) BDRip от MegaPeer | Jaskier 1.46 GB ↑ 71 ↓ 37

Отзывы
Зарегистрируйтесь чтобы добавить комментарий.
Обратная связь
Copyleft ©