↑↓Torrent.by
Поиск
Логин: Регистрация
Пароль: Восстановить пароль
Загрузка...

Лето (2018) WEB-DL 1080p | Лицензия

Скачать leto-2018-web-dl-1080p-licenziya.torrent
U Магнитная ссылка Размер: 4.64 GB Раздают: 67 Качают: 34 Добавлен: 2019-07-28 07:29:46
Лето (2018) WEB-DL 1080p | Лицензия

Название: Лето
Год выхода: 2018
Жанр: Биография, музыка, драма
Страна: Россия
Перевод: Оригинальный русский язык без цензуры
Продолжительность: 02:08:36
Режиссер: Кирилл Серебренников
В ролях: Рома Зверь, Ирина Старшенбаум, Тео Ю, Филипп Авдеев, Евгений Серзин, Александр Горчилин, Василий Михайлов, Александр Кузнецов, Никита Ефремов, Герман Осипов и др.

О фильме: Фильм рассказывает о самом начале творческого пути Виктора Цоя и группы «Кино», о его взаимоотношениях с Майком Науменко, его женой Натальей и многими, кто был в авангарде рок-движения Ленинграда 1981 года. Это история о Ленинграде 80-х, о любви, поисках и больших надеждах — о настроении, которое останется с нами навсегда.

Файл
Качество: WEB-DL 1080p
Видео: MPEG-4 AVC, 1920x796, 4525 kbps, 23,976 fps
Звук: русский, AC3, 5.1 ch, 48 kHz, 640 kbps | Лицензия
Субтитры: нет

Релиз:


[+] MI
General
Unique ID                   : 239005828759756447819389542577595131403 (0xB3CED926DB376092A9EA07459CBEA60B)
Complete name               : C:UtorrentLetoLicWEBDL1080p.mkv
Format                      : Matroska
Format version              : Version 4
File size                   : 4.64 GiB
Duration                    : 2 h 8 min
Overall bit rate            : 5 167 kb/s
Encoded date                : UTC 2019-07-27 08:30:18
Writing application         : mkvmerge v9.5.0 ('Quiet Fire') 64bit
Writing library             : libebml v1.3.4 + libmatroska v1.4.5

Video
ID                          : 1
Format                      : AVC
Format/Info                 : Advanced Video Codec
Format profile              : High@L4
Format settings             : CABAC / 5 Ref Frames
Format settings, CABAC      : Yes
Format settings, Reference  : 5 frames
Codec ID                    : V_MPEG4/ISO/AVC
Duration                    : 2 h 8 min
Bit rate                    : 4 525 kb/s
Width                       : 1 920 pixels
Height                      : 796 pixels
Display aspect ratio        : 2.40:1
Frame rate mode             : Constant
Frame rate                  : 23.976 FPS
Color space                 : YUV
Chroma subsampling          : 4:2:0
Bit depth                   : 8 bits
Scan type                   : Progressive
Bits/(Pixel*Frame)          : 0.124
Stream size                 : 4.06 GiB (88%)
Language                    : English
Default                     : Yes
Forced                      : No
Color range                 : Limited
Color primaries             : BT.709
Transfer characteristics    : BT.709
Matrix coefficients         : BT.709

Audio
ID                          : 2
Format                      : AC-3
Format/Info                 : Audio Coding 3
Commercial name             : Dolby Digital
Codec ID                    : A_AC3
Duration                    : 2 h 8 min
Bit rate mode               : Constant
Bit rate                    : 640 kb/s
Channel(s)                  : 6 channels
Channel layout              : L R C LFE Ls Rs
Sampling rate               : 48.0 kHz
Frame rate                  : 31.250 FPS (1536 SPF)
Bit depth                   : 16 bits
Compression mode            : Lossy
Stream size                 : 589 MiB (12%)
Title                       : rus
Language                    : Russian
Default                     : Yes
Forced                      : No

Menu
00:00:00.000                : en:1
00:07:49.678                : en:2
00:19:53.276                : en:3
00:26:38.055                : en:4
00:33:11.531                : en:5
00:39:21.359                : en:6
00:47:48.532                : en:7
00:57:58.683                : en:8
01:03:25.968                : en:9
01:11:15.771                : en:10
01:19:38.148                : en:11
01:27:43.925                : en:12
01:34:11.103                : en:13
01:44:15.874                : en:14
01:50:17.652                : en:15
01:58:53.834                : en:16




Скриншоты:
[+] Всего файлов в раздаче - 1:
LetoLicWEBDL1080p.mkv4.64 GB

Показать еще раздачи по запросу лето:
2019-07-29 U Лето (2018) WEB-DLRip от GeneralFilm | Лицензия 1.46 GB ↑ 126 ↓ 19
2019-07-29 U Лето (2018) WEB-DLRip-AVC от Files-x | Лицензия 2.17 GB ↑ 51 ↓ 18
2019-07-28 U Лето (2018) WEB-DLRip | Лицензия 1.46 GB ↑ 86 ↓ 26
2019-06-17 U Сборник - Самые cкачиваемые треки ВКонтакте [Лето] (2019) MP3 849.26 MB ↑ 620 ↓ 158
2019-06-16 U Холодное лето пятьдесят третьего (1987) WEBRip-AVC 1.48 GB ↑ 37 ↓ 6
2019-05-04 U Последнее лето / The Last Summer (2019) WEB-DLRip от MegaPeer | Пифагор 1.46 GB ↑ 215 ↓ 87
2019-02-05 U Лето 84 / Summer of 84 (2018) BDRip от MegaPeer | Jaskier 1.46 GB ↑ 71 ↓ 37

Отзывы
Зарегистрируйтесь чтобы добавить комментарий.
Обратная связь
Copyleft ©