↑↓Torrent.by
Поиск
Логин: Регистрация
Пароль: Восстановить пароль
Загрузка...

Лето (2018) WEB-DLRip-AVC от Files-x | Лицензия

Скачать leto-2018-web-dlrip-avc-ot-files-x-licenziya.torrent
U Магнитная ссылка Размер: 2.17 GB Раздают: 51 Качают: 18 Добавлен: 2019-07-29 12:08:30
Лето (2018) WEB-DLRip-AVC от Files-x | Лицензия

Оригинальное название: Лето
Год выпуска: 2018
Жанр:  Биография, музыка, драма
Режиссер: Кирилл Серебренников
В ролях: Рома Зверь, Ирина Старшенбаум, Тео Ю, Филипп Авдеев, Евгений Серзин, Александр Горчилин, Василий Михайлов, Александр Кузнецов, Никита Ефремов, Герман Осипов и др.

О фильме: Фильм рассказывает о самом начале творческого пути Виктора Цоя и группы «Кино», о его взаимоотношениях с Майком Науменко, его женой Натальей и многими, кто был в авангарде рок-движения Ленинграда 1981 года. Это история о Ленинграде 80-х, о любви, поисках и больших надеждах — о настроении, которое останется с нами навсегда

Страна: Россия
Студия: Hype Film, Kinovista, Charades
Продолжительность: 02:08:36

Файл
Кодек: h.264
Качество: WEB-DLRip-AVC
Видео: MPEG-4 AVC, ~ 1956 Кбит/с, 1024x384, 23.976 кадр/с
Аудио: 48.0 kHz, AC3 Dolby Digital, 5/1 (L C R, Side: L R, LFE) ch, 448 kbps
Перевод: Не требуется [Русский без цензуры]
Cубтитры: нет

Внимание! Присутствует ненормативная лексика

Релиз:


[+] MediaInfo

General
Unique ID                                : 233919053485921341951752050131294684897 (0xAFFB2BC48064DBF993040DD181B706E1)
Complete name                            : F:Leto.(2018).WEB-DLRip.(AVC).by.Серый1779.Files-x.mkv
Format                                   : Matroska
Format version                           : Version 2
File size                                : 2.17 GiB
Duration                                 : 2 h 8 min
Overall bit rate                         : 2 421 kb/s
Encoded date                             : UTC 2019-07-28 14:23:48
Writing application                      : mkvmerge v7.8.0 ('River Man') 32bit built on Apr  3 2015 12:11:22
Writing library                          : libebml v1.3.1 + libmatroska v1.4.2

Video
ID                                       : 1
Format                                   : AVC
Format/Info                              : Advanced Video Codec
Format profile                           : High@L4.1
Format settings                          : CABAC / 10 Ref Frames
Format settings, CABAC                   : Yes
Format settings, RefFrames               : 10 frames
Codec ID                                 : V_MPEG4/ISO/AVC
Duration                                 : 2 h 8 min
Bit rate                                 : 1 972 kb/s
Width                                    : 1 024 pixels
Height                                   : 384 pixels
Display aspect ratio                     : 2.667
Frame rate mode                          : Constant
Frame rate                               : 23.976 (24000/1001) FPS
Color space                              : YUV
Chroma subsampling                       : 4:2:0
Bit depth                                : 8 bits
Scan type                                : Progressive
Bits/(Pixel*Frame)                       : 0.209
Stream size                              : 1.73 GiB (80%)
Writing library                          : x264 core 146 r2538 121396c
Encoding settings                        : cabac=1 / ref=10 / deblock=1:-2:-1 / analyse=0x3:0x133 / me=umh / subme=11 / psy=1 / psy_rd=1.00:0.08 / mixed_ref=1 / me_range=32 / chroma_me=1 / trellis=2 / 8x8dct=1 / cqm=0 / deadzone=21,11 / fast_pskip=0 / chroma_qp_offset=-3 / threads=18 / lookahead_threads=3 / sliced_threads=0 / nr=0 / decimate=1 / interlaced=0 / bluray_compat=0 / constrained_intra=0 / bframes=11 / b_pyramid=2 / b_adapt=2 / b_bias=0 / direct=1 / weightb=1 / open_gop=0 / weightp=2 / keyint=250 / keyint_min=23 / scenecut=40 / intra_refresh=0 / rc=2pass / mbtree=0 / bitrate=1972 / ratetol=1.0 / qcomp=0.60 / qpmin=0 / qpmax=69 / qpstep=4 / cplxblur=20.0 / qblur=0.5 / ip_ratio=1.40 / pb_ratio=1.30 / aq=2:1.00
Default                                  : Yes
Forced                                   : No
Color range                              : Limited
Color primaries                          : BT.709
Transfer characteristics                 : BT.709
Matrix coefficients                      : BT.709

Audio
ID                                       : 2
Format                                   : AC-3
Format/Info                              : Audio Coding 3
Format settings, Endianness              : Big
Codec ID                                 : A_AC3
Duration                                 : 2 h 8 min
Bit rate mode                            : Constant
Bit rate                                 : 448 kb/s
Channel(s)                               : 6 channels
Channel positions                        : Front: L C R, Side: L R, LFE
Sampling rate                            : 48.0 kHz
Frame rate                               : 31.250 FPS (1536 SPF)
Bit depth                                : 16 bits
Compression mode                         : Lossy
Stream size                              : 412 MiB (19%)
Service kind                             : Complete Main
Default                                  : Yes
Forced                                   : No




Скриншоты:
[+] Всего файлов в раздаче - 1:
Leto.(2018).WEB-DLRip.(AVC).by.Серый1779.Files-x.mkv2.17 GB

Показать еще раздачи по запросу лето:
2019-07-29 U Лето (2018) WEB-DLRip от GeneralFilm | Лицензия 1.46 GB ↑ 130 ↓ 19
2019-07-28 U Лето (2018) WEB-DL 1080p | Лицензия 4.64 GB ↑ 67 ↓ 34
2019-07-28 U Лето (2018) WEB-DLRip | Лицензия 1.46 GB ↑ 87 ↓ 26
2019-06-17 U Сборник - Самые cкачиваемые треки ВКонтакте [Лето] (2019) MP3 849.26 MB ↑ 630 ↓ 158
2019-06-16 U Холодное лето пятьдесят третьего (1987) WEBRip-AVC 1.48 GB ↑ 37 ↓ 6
2019-05-04 U Последнее лето / The Last Summer (2019) WEB-DLRip от MegaPeer | Пифагор 1.46 GB ↑ 215 ↓ 87
2019-02-05 U Лето 84 / Summer of 84 (2018) BDRip от MegaPeer | Jaskier 1.46 GB ↑ 71 ↓ 37

Отзывы
Зарегистрируйтесь чтобы добавить комментарий.
Обратная связь
Copyleft ©