↑↓Torrent.by
Поиск
Логин: Регистрация
Пароль: Восстановить пароль
Загрузка...

КВН-2019. Премьер лига. 1/8 финала. Игра вторая [28.07] (2019) HDTV 1080i от GeneralFilm

Скачать kvn-2019-premer-liga-1-8-finala-igra-vtoraya-28-07-hdtv-1080i-ot-generalfilm.torrent
U Магнитная ссылка Размер: 5.99 GB Раздают: 106 Качают: 19 Добавлен: 2019-07-29 12:09:27
КВН-2019. Премьер лига. 1/8 финала. Игра вторая  [28.07] (2019) HDTV 1080i от GeneralFilm

Год выпуска: 2019
Жанр:  Юмор
Выпущено: Россия, АМИК, Первый канал
Ведущий: Александр Масляков мл.

О фильме: Что такое КВН - знают, без сомнения, все. В КВН играют во всем мире, это прежде всего молодежная игра. Постоянные конкурсные задания - "Визитная карточка", "Разминка", "Конкурс капитанов", "Музыкальный конкурс", "Домашнее задание". Игру команд оценивает профессиональное жюри - люди, у которых с чувством юмора все в порядке, многие из них раньше сами играли в КВН. Среди членов жюри были Константин Эрнст, Леонид Парфенов, Юлий Гусман, Леонид Ярмольник, Валдис Пельш, Сергей Шолохов, Геннадий Хазанов и другие. Кроме самих игр проводятся ежегодные встречи: фестиваль команд КВН (с 1990 г., семь раз фестиваль проходил в г.Сочи), музыкальный фестиваль КВН, летний кубок КВН, международные товарищеские игры в КВН. Сборная КВН играет со сборными других стран. Уже состоялись игры между сборной КВН и сборными Америки, Австралии, Израиля... Игра в КВН для многих становится профессией, а многие благодаря игре связывают жизнь с искусством. Из КВН "вышли": Леонид Якубович, Михаил Марфин, Татьяна Лазарева, Олег Филимонов, Юлий Гусман и многие другие.

Качество: HDTV (1080i)
Видео: MPEG-TS AVC, 11.5 Мбит/с, 1920x1080
Аудио: Русский (AC3, 2 ch, 384 Кбит/с), (MP2, 2 ch, 192 Кбит/с)
Продолжительность: 01:07:31
Перевод: Не требуется
Субтитры: нет

Релиз:
[+] MediaInfo

Общее
Идентификатор                            : 1 (0x1)
Полное имя                               : D:ЗаписьKVN-2019. Premer liga (1.8 finala. Igra vtoraja).HDTV(1080i).GeneralFilm.ts
Формат                                   : MPEG-TS
Размер файла                             : 5,99 Гбайт
Продолжительность                        : 1 ч. 7 м.
Режим общего битрейта                    : Переменный
Общий поток                              : 12,7 Мбит/сек

Видео
Идентификатор                            : 1904 (0x770)
Идентификатор меню                       : 80 (0x50)
Формат                                   : AVC
Формат/Информация                        : Advanced Video Codec
Профиль формата                          : High@L4
Параметр CABAC формата                   : Да
Параметр ReFrames формата                : 3 кадра
Идентификатор кодека                     : 27
Продолжительность                        : 1 ч. 7 м.
Битрейт                                  : 11,5 Мбит/сек
Ширина                                   : 1920 пикселей
Высота                                   : 1080 пикселей
Соотношение сторон                       : 16:9
Частота кадров                           : 25,000 кадров/сек
Стандарт вещания                         : Component
Цветовое пространство                    : YUV
Субдискретизация насыщенности            : 4:2:0
Битовая глубина                          : 8 бит
Тип развёртки                            : Чересстрочная
Метод сохранения типа развёртки          : Раздельные поля
Порядок развёртки                        : Верхнее поле первое
Бит/(Пиксели*Кадры)                      : 0.222
Размер потока                            : 5,42 Гбайт (90%)
Цветовой диапазон                        : Limited
Основные цвета                           : BT.709
Характеристики трансфера                 : BT.709
Коэффициенты матрицы                     : BT.709

Аудио #1
Идентификатор                            : 2904 (0xB58)
Идентификатор меню                       : 80 (0x50)
Формат                                   : AC-3
Формат/Информация                        : Audio Coding 3
Расширение режима                        : CM (complete main)
Параметр Endianness формата              : Big
Идентификатор кодека                     : 6
Продолжительность                        : 1 ч. 7 м.
Вид битрейта                             : Постоянный
Битрейт                                  : 384 Кбит/сек
Каналы                                   : 6 каналов
Расположение каналов                     : Front: L C R, Side: L R, LFE
Частота                                  : 48,0 КГц
Частота кадров                           : 31,250 кадров/сек (1536 spf)
Битовая глубина                          : 16 бит
Метод сжатия                             : С потерями
Задержка видео                           : -40 мс.
Размер потока                            : 185 Мбайт (3%)
Язык                                     : Russian

Аудио #2
Идентификатор                            : 2905 (0xB59)
Идентификатор меню                       : 80 (0x50)
Формат                                   : MPEG Audio
Версия формата                           : Version 1
Профиль формата                          : Layer 2
Идентификатор кодека                     : 3
Продолжительность                        : 1 ч. 7 м.
Вид битрейта                             : Постоянный
Битрейт                                  : 192 Кбит/сек
Каналы                                   : 2 канала
Частота                                  : 48,0 КГц
Метод сжатия                             : С потерями
Задержка видео                           : -40 мс.
Размер потока                            : 92,7 Мбайт (2%)
Язык                                     : Russian




[+] Жюри

Вадим Галыгин, Михаил Башкатов, Азамат Мусагалиев, Алексей Кривеня, Дмитрий Кожома



[+] Команды

«Электрошок», Санкт-Петербург
«Город питон», МФЮА, Москва
«Новосиб», Новосибирск
«Город 313», СОГУ, Владикавказ
«Клуб благородных девиц», Свердловская область
Сборная Хабаровского края «Культурный город АЛИ»
«Артбакс», РЭУ им. Плеханова, Москва
«Тверской бульвар», Москва



Скриншоты:
[+] Всего файлов в раздаче - 1:
KVN-2019. Premer liga (1.8 finala. Igra vtoraja).HDTV(1080i).GeneralFilm.ts5.99 GB

Показать еще раздачи по запросу премьер:
2019-08-18 U КВН-2019. Премьер лига. 1/4 финала. Игра вторая [18.08] (2019) SATRip 1.04 GB ↑ 243 ↓ 74
2019-08-12 U КВН-2019. Премьер лига [01-04] (2019) WEBRip от Files-x 3.69 GB ↑ 45 ↓ 120
2019-08-06 U КВН-2019. Премьер лига [01-03] (2019) WEBRip от Files-x 2.75 GB ↑ 73 ↓ 146
2019-07-28 U КВН-2019. Премьер лига. 1/8 финала. Игра вторая [28.07] (2019) HDTVRip от GeneralFilm 961.09 MB ↑ 119 ↓ 31
2019-07-28 U КВН-2019. Премьер лига. 1/8 финала. Игра вторая [28.07] (2019) SATRip 1.01 GB ↑ 392 ↓ 81
2019-07-21 U КВН-2019. Премьер лига. 1/8 финала. Игра первая [21.07] (2019) HDTV 1080i от GeneralFilm 6.08 GB ↑ 187 ↓ 81
2019-07-21 U КВН-2019. Премьер лига. 1/8 финала. Игра первая [21.07] (2019) HDTVRip от GeneralFilm 1,011.85 MB ↑ 545 ↓ 131

Отзывы
Зарегистрируйтесь чтобы добавить комментарий.
Обратная связь
Copyleft ©