↑↓Torrent.by
Поиск
Логин: Регистрация
Пароль: Восстановить пароль
Загрузка...

Лето (2018) WEB-DLRip от GeneralFilm | Лицензия

Скачать leto-2018-web-dlrip-ot-generalfilm-licenziya.torrent
U Магнитная ссылка Размер: 1.46 GB Раздают: 191 Качают: 20 Добавлен: 2019-07-29 12:09:40
Лето (2018) WEB-DLRip от GeneralFilm | Лицензия

Оригинальное название: Лето
Год выпуска: 2018
Жанр:  Биография, музыка, драма
Выпущено: Россия, Hype Film, Kinovista, Charades
Режиссер: Кирилл Серебренников
В ролях: Рома Зверь, Ирина Старшенбаум, Тео Ю, Филипп Авдеев, Евгений Серзин, Александр Горчилин, Василий Михайлов, Александр Кузнецов, Никита Ефремов, Герман Осипов и др.

О фильме: Фильм рассказывает о самом начале творческого пути Виктора Цоя и группы «Кино», о его взаимоотношениях с Майком Науменко, его женой Натальей и многими, кто был в авангарде рок-движения Ленинграда 1981 года. Это история о Ленинграде 80-х, о любви, поисках и больших надеждах — о настроении, которое останется с нами навсегда

Качество: WEB-DLRip
Видео: XviD build 73, 720x272 (2.647), 23.976 fps, 1165 Kbps (0.248 bit/pixel)
Аудио: 48.0 kHz, AC3 Dolby Digital, 5/1 (L C R, Side: L R, LFE) ch, 448 kbps
Продолжительность: 02:08:36
Перевод: Не требуется [Русский без цензуры]
Cубтитры: нет

Внимание! Присутствует ненормативная лексика

Релиз:


[+] MediaInfo
General
Complete name               : D:RazdachiLeto.2018.WEB-DLRip.GeneralFilm.avi
Format                      : AVI
Format/Info                 : Audio Video Interleave
File size                   : 1.46 GiB
Duration                    : 2 h 8 min
Overall bit rate            : 1 622 kb/s
Writing application         : VirtualDubMod 1.5.10.3 | www.virtualdub-fr.org || (build 2550/release)
Writing library             : VirtualDubMod build 2550/release

Video
ID                          : 0
Format                      : MPEG-4 Visual
Format profile              : Advanced Simple@L5
Format settings             : BVOP1 / Custom Matrix
Format settings, BVOP       : 1
Format settings, QPel       : No
Format settings, GMC        : No warppoints
Format settings, Matrix     : Custom
Codec ID                    : XVID
Codec ID/Hint               : XviD
Duration                    : 2 h 8 min
Bit rate                    : 1 165 kb/s
Width                       : 720 pixels
Height                      : 272 pixels
Display aspect ratio        : 2.647
Frame rate                  : 23.976 (24000/1001) FPS
Color space                 : YUV
Chroma subsampling          : 4:2:0
Bit depth                   : 8 bits
Scan type                   : Progressive
Compression mode            : Lossy
Bits/(Pixel*Frame)          : 0.248
Stream size                 : 1.05 GiB (72%)
Writing library             : XviD 73

Audio
ID                          : 1
Format                      : AC-3
Format/Info                 : Audio Coding 3
Commercial name             : Dolby Digital
Codec ID                    : 2000
Duration                    : 2 h 8 min
Bit rate mode               : Constant
Bit rate                    : 448 kb/s
Channel(s)                  : 6 channels
Channel layout              : L R C LFE Ls Rs
Sampling rate               : 48.0 kHz
Frame rate                  : 31.250 FPS (1536 SPF)
Bit depth                   : 16 bits
Compression mode            : Lossy
Stream size                 : 412 MiB (28%)
Alignment                   : Split accross interleaves
Interleave, duration        : 42  ms (1.00 video frame)
Interleave, preload duratio : 500  ms
Service kind                : Complete Main



Скриншоты:
[+] Всего файлов в раздаче - 1:
Leto.2018.WEB-DLRip.GeneralFilm.avi1.46 GB

Показать еще раздачи по запросу лето:
2019-09-07 U Жаркое лето / Green Green [S01] (2003) DVDRip от Deadmauvlad | P | Лицензия 4.49 GB ↑ 15 ↓ 11
2019-07-28 U Лето (2018) WEB-DLRip | Лицензия 1.46 GB ↑ 128 ↓ 27
2019-06-17 U Сборник - Самые cкачиваемые треки ВКонтакте [Лето] (2019) MP3 849.26 MB ↑ 918 ↓ 180
2019-02-05 U Лето 84 / Summer of 84 (2018) BDRip от MegaPeer | Jaskier 1.46 GB ↑ 80 ↓ 39
2018-12-08 U Облепиховое лето (2018) WEB-DL 1080p от KORSAR | iTunes 2.99 GB ↑ 523 ↓ 122
2016-03-15 U Павел Мотин - Большая иллюстрированная энциклопедия рыбалки. Зима. Весна. Лето. Осень (2016) FB2 17.20 MB ↑ 304 ↓ 2
2014-01-04 U Мираж - Солнечное Лето. Лучшие Песни 1987-1995 (2014) MP3 100.89 MB ↑ 690 ↓ 4

Отзывы
Зарегистрируйтесь чтобы добавить комментарий.
Обратная связь
Copyleft ©