↑↓Torrent.by
Поиск
Логин: Регистрация
Пароль: Восстановить пароль
Загрузка...

Безумный куш / Опасная / Danger One (2018) WEB-DL 720p | iTunes

Скачать bezumnyy-kush-opasnaya-danger-one-2018-web-dl-720p-itunes.torrent
U Магнитная ссылка Размер: 3.17 GB Раздают: 88 Качают: 35 Добавлен: 2019-07-29 12:09:43
Безумный куш / Опасная / Danger One (2018) WEB-DL 720p | iTunes

Название: Безумный куш / Опасная
Оригинальное название: Danger One
Год выпуска: 2018
Жанр: Боевик, триллер, комедия, криминал
Режиссер: Том Эш
В ролях: Том Эверетт Скотт, Омар Джурди, Анхелика Селая, Дэнис О’Хэр, Майкл О’Нил, Дэймон Дэйуб, Чарльз Шонесси, Ванесса Вандер Плюм, Келли Фрай, Гойя Роблз

О фильме: Два сотрудника скорой помощи прибывают на место автомобильной аварии, где забирают мужчину, находящегося в критическом состоянии. Пытаясь спасти потерпевшего, по пути в госпиталь герои обнаруживают в подкладке его куртки весьма необычную находку — 1 миллион долларов наличными. Не у каждого пациента оказывается миллион баксов и не каждый с такой суммой… умирает прямо в машине скорой помощи! Опешившие медбратья должны сделать выбор прямо здесь и сейчас: присвоить эту сумму или остаться законопослушными гражданами.

Страна: США
Студия: Mythmaker Productions, Silvatar Media
Продолжительность: 01:41:48
Перевод: Дублированный | iTunes

Файл
Качество: WEB-DL 720p
Контейнер: MKV
Видео: AVC, 1280x532 (2.40:1), 23.976 fps, 4074 Kbps (0.250 bit/pixel)
Аудио: 48 kHz, AC3 Dolby Digital, 3/2 (L,C,R,l,r) + LFE ch, ~384.00 kbps avg
Субтитры: Нет

Релиз:


[+] MediaInfo
General
Unique ID : 31049058450748397246925186335715125329 (0x175BD4C5B104D1D782F1C0DDDF906851)
Complete name : Danger.One.2018.720p.WEB-DL.Rus.TeamHD.mkv
Format : Matroska
Format version : Version 4
File size : 3.17 GiB
Duration : 1h 41mn
Overall bit rate : 4 460 Kbps
Encoded date : UTC 2019-07-28 18:53:55
Writing application : mkvmerge v8.5.1 ('Where you lead I will follow') 64bit
Writing library : libebml v1.3.3 + libmatroska v1.4.4

Video
ID : 1
Format : AVC
Format/Info : Advanced Video Codec
Format profile : Main@L3.1
Format settings : 2 Ref Frames
Format settings, CABAC : No
Format settings, ReFrames : 2 frames
Codec ID : V_MPEG4/ISO/AVC
Duration : 1h 41mn
Bit rate : 4 074 Kbps
Width : 1 280 pixels
Height : 532 pixels
Display aspect ratio : 2.40:1
Frame rate mode : Constant
Frame rate : 23.976 (24000/1001) fps
Color space : YUV
Chroma subsampling : 4:2:0
Bit depth : 8 bits
Scan type : Progressive
Bits/(Pixel*Frame) : 0.250
Stream size : 2.90 GiB (91%)
Title : Main Program
Language : English
Default : Yes
Forced : No
Color range : Limited
Color primaries : BT.709
Transfer characteristics : BT.709
Matrix coefficients : BT.709

Audio
ID : 2
Format : AC-3
Format/Info : Audio Coding 3
Commercial name : Dolby Digital
Codec ID : A_AC3
Duration : 1h 41mn
Bit rate mode : Constant
Bit rate : 384 Kbps
Channel(s) : 6 channels
Channel layout : L R C LFE Ls Rs
Sampling rate : 48.0 KHz
Frame rate : 31.250 fps (1536 SPF)
Bit depth : 16 bits
Compression mode : Lossy
Stream size : 280 MiB (9%)
Title : Russian DUB from iTunes Russia DD 5.1
Language : Russian
Service kind : Complete Main
Default : Yes
Forced : No

Menu
00:00:00.000 : en:Глава 1
00:08:24.379 : en:Глава 2
00:16:51.803 : en:Глава 3
00:24:16.831 : en:Глава 4
00:31:34.393 : en:Глава 5
00:39:53.183 : en:Глава 6
00:48:22.066 : en:Глава 7
00:56:40.189 : en:Глава 8
01:05:29.927 : en:Глава 9
01:13:41.418 : en:Глава 10
01:22:18.184 : en:Глава 11
01:30:43.606 : en:Глава 12



Скриншоты:
[+] Всего файлов в раздаче - 1:
Danger.One.2018.720p.WEB-DL.Rus.TeamHD.mkv3.17 GB

Показать еще раздачи по запросу безумный:
2019-07-30 U Безумный куш / Опасная / Danger One (2018) WEB-DLRip-AVC от ExKinoRay | iTunes 744.74 MB ↑ 50 ↓ 19
2019-07-29 U Безумный куш / Опасная / Danger One (2018) WEB-DLRip-AVC от OlLanDGroup | D, P | iTunes 1.69 GB ↑ 123 ↓ 40
2019-07-29 U Безумный куш / Опасная / Danger One (2018) WEB-DL 1080p | D, P | iTunes 3.95 GB ↑ 222 ↓ 106
2019-07-29 U Безумный куш / Опасная / Danger One (2018) WEB-DLRip от MegaPeer | iTunes 1.46 GB ↑ 385 ↓ 171
2018-05-19 U Безумный Макс: Дорога ярости / Mad Max: Fury Road (2015) BDRip 1080p 7.75 GB ↑ 393 ↓ 30
2015-11-15 U Безумный Макс: Дорога ярости / Mad Max: Fury Road (2015) BDRip | Володарский 2.38 GB ↑ 87 ↓ 34
2015-09-30 U Безумный Макс: Дорога ярости / Mad Max: Fury Road (2015) BDRip от MediaClub | P 2К2.18 GB ↑ 161 ↓ 48

Отзывы
Зарегистрируйтесь чтобы добавить комментарий.
Обратная связь
Copyleft ©