↑↓torrent.by
Поиск
Логин: Регистрация
Пароль: Восстановить пароль

Годзилла 2: Король монстров / Ґодзілла II: Король монстрів / Godzilla: King of the Monsters (2019) WEBRip 1080p | Line | UKR

Скачать godzilla-2-korol-monstrov-odz-lla-ii-monstr-v-king-of-the-monsters-2019-webrip-1080p-line-ukr.torrent
U Магнитная ссылка Размер: 3.55 GB Раздают: 160 Качают: 85 Добавлен: 2019-07-30 09:13:17
Годзилла 2: Король монстров / Ґодзілла II: Король монстрів / Godzilla: King of the Monsters (2019) WEBRip 1080p | Line | UKR

Название: Годзилла 2: Король монстров
Оригинальное название: Godzilla: King of the Monster
Год выхода: 2019
Жанр: Фантастика, фэнтези, боевик, приключения

Режиссер: Майкл Догерти

В ролях: Кайл Чандлер, Вера Фармига, Милли Бобби Браун, Кэн Ватанабэ, Чжан Цзыи, Брэдли Уитфорд, Салли Хокинс, Чарльз Дэнс, Томас Миддлдитч, Аиша Хайндс

О фильме:
История рассказывает о героических усилиях криптозоологического агентства «Монарх» по сдерживанию гигантских монстров. В этот раз против могучего Годзиллы выступают Мотра, Родан и ультимативный кайдзю — трёхголовый монстр Кинг Гидора. Когда эти древние суперхищники, со временем превратившиеся в полузабытые мифы, восстают снова, чтобы сойтись в схватке, человечеству остаётся отойти в сторонку и постараться не погибнуть

Страна: США, Япония
Продолжительность: 02:11:35
Перевод: Профессиональный (дублированный) [Line, Украинский]

Файл
Кодек: x.264
Качество: WEBRip 1080p
Видео: AVC, 1920x800 (2.40:1), 29.970 fps, 3 500 kb/s
Аудио 1: AC-3, 48.0 kHz, 2 ch, 192 kb/s | UKR
Аудио 2: AC-3, 48.0 kHz, 2 ch, 192 kb/s | ENG
Субтитры: Корейские (вшитые)

Семпл


[+] MI
General
Unique ID                                : 234663427709748424357536245070121291138 (0xB08A88401606D46FB974A88DB0964D82)
Complete name                            : Godzilla.King.of.the.Monsters.2019.WEBRip.1080p.Ukr.Eng.mkv
Format                                   : Matroska
Format version                           : Version 4
File size                                : 3.55 GiB
Duration                                 : 2 h 11 min
Overall bit rate                         : 3 857 kb/s
Encoded date                             : UTC 2019-07-29 20:08:52
Writing application                      : mkvmerge v8.3.0 ('Over the Horizon') 64bit
Writing library                          : libebml v1.3.1 + libmatroska v1.4.2

Video
ID                                       : 1
Format                                   : AVC
Format/Info                              : Advanced Video Codec
Format profile                           : High@L4
Format settings                          : CABAC / 4 Ref Frames
Format settings, CABAC                   : Yes
Format settings, ReFrames                : 4 frames
Codec ID                                 : V_MPEG4/ISO/AVC
Duration                                 : 2 h 11 min
Bit rate                                 : 3 500 kb/s
Width                                    : 1 920 pixels
Height                                   : 800 pixels
Display aspect ratio                     : 2.40:1
Frame rate mode                          : Constant
Frame rate                               : 29.970 (30000/1001) FPS
Color space                              : YUV
Chroma subsampling                       : 4:2:0
Bit depth                                : 8 bits
Scan type                                : Progressive
Bits/(Pixel*Frame)                       : 0.076
Stream size                              : 3.19 GiB (90%)
Writing library                          : x264 core 152 r2854 e9a5903
Encoding settings                        : cabac=1 / ref=3 / deblock=1:0:0 / analyse=0x3:0x133 / me=hex / subme=7 / psy=1 / psy_rd=1.00:0.00 / mixed_ref=1 / me_range=16 / chroma_me=1 / trellis=1 / 8x8dct=1 / cqm=0 / deadzone=21,11 / fast_pskip=1 / chroma_qp_offset=-2 / threads=24 / lookahead_threads=4 / sliced_threads=0 / nr=0 / decimate=1 / interlaced=0 / bluray_compat=0 / constrained_intra=0 / bframes=3 / b_pyramid=2 / b_adapt=1 / b_bias=0 / direct=1 / weightb=1 / open_gop=0 / weightp=2 / keyint=250 / keyint_min=25 / scenecut=40 / intra_refresh=0 / rc_lookahead=40 / rc=abr / mbtree=1 / bitrate=3500 / ratetol=1.0 / qcomp=0.60 / qpmin=10 / qpmax=51 / qpstep=4 / ip_ratio=1.40 / aq=1:1.00
Language                                 : English
Default                                  : Yes
Forced                                   : No

Audio #1
ID                                       : 2
Format                                   : AC-3
Format/Info                              : Audio Coding 3
Commercial name                          : Dolby Digital
Codec ID                                 : A_AC3
Duration                                 : 2 h 11 min
Bit rate mode                            : Constant
Bit rate                                 : 192 kb/s
Channel(s)                               : 2 channels
Channel layout                           : L R
Sampling rate                            : 48.0 kHz
Frame rate                               : 31.250 FPS (1536 SPF)
Bit depth                                : 16 bits
Compression mode                         : Lossy
Stream size                              : 181 MiB (5%)
Title                                    : DUB (Line)
Language                                 : Ukrainian
Default                                  : Yes
Forced                                   : No

Audio #2
ID                                       : 3
Format                                   : AC-3
Format/Info                              : Audio Coding 3
Commercial name                          : Dolby Digital
Codec ID                                 : A_AC3
Duration                                 : 2 h 11 min
Bit rate mode                            : Constant
Bit rate                                 : 192 kb/s
Channel(s)                               : 2 channels
Channel layout                           : L R
Sampling rate                            : 48.0 kHz
Frame rate                               : 31.250 FPS (1536 SPF)
Bit depth                                : 16 bits
Compression mode                         : Lossy
Stream size                              : 181 MiB (5%)
Title                                    : Original
Language                                 : English
Default                                  : No
Forced                                   : No



Скриншоты:
[+] Всего файлов в раздаче - 1:
Godzilla.King.of.the.Monsters.2019.WEBRip.1080p.Ukr.Eng.mkv3.55 GB

Показать еще раздачи по запросу годзилла:
2020-02-03 U Годзилла: Решающая схватка / Godzilla: Kessen Kidou Zoushoku Toshi / Gojira: kessen kidô zôshoku toshi (2018) BDRip 1080p | Kansai 2.43 GB ↑ 63 ↓ 7
2019-08-23 U Годзилла 2: Король монстров / Godzilla: King of the Monsters (2019) BDRip от Twister & ExKinoRay | iTunes 1.47 GB ↑ 303 ↓ 15
2019-08-20 U Годзилла 2: Король монстров / Godzilla: King of the Monsters (2019) BDRip 1080p от qqss44 & MegaPeer | iTunes 7.52 GB ↑ 147 ↓ 49
2019-08-18 U Годзилла 2: Король монстров / Godzilla: King of the Monsters (2019) BDRip от MegaPeer | iTunes 1.46 GB ↑ 2044 ↓ 132
2019-08-16 U Годзилла 2: Король монстров / Godzilla: King of the Monsters (2019) WEB-DLRip от Scarabey | iTunes 1.45 GB ↑ 238 ↓ 24
2019-08-14 U Годзилла 2: Король монстров / Godzilla: King of the Monsters (2019) WEB-DL 1080p от селезень | D, P | iTunes 9.58 GB ↑ 1017 ↓ 439
2018-01-21 U Годзилла: Планета чудовищ / Godzilla: Monster Planet (2017) WEBRip 1080p | L1 2.94 GB ↑ 1047 ↓ 274

Отзывы
Зарегистрируйтесь чтобы добавить комментарий.
Обратная связь
Copyleft ©