↑↓Torrent.by
Поиск
Логин: Регистрация
Пароль: Восстановить пароль
Загрузка...

BBC Horizon: Витамины: чудо или миф / Vitamin Pills: Miracle or Myth? (2018) HDTVRip 720p | P2

Скачать bbc-horizon-vitaminy-chudo-ili-mif-vitamin-pills-miracle-or-myth-2018-hdtvrip-720p-p2.torrent
U Магнитная ссылка Размер: 1.38 GB Раздают: 69 Качают: 17 Добавлен: 2019-07-30 09:13:49
BBC Horizon: Витамины: чудо или миф / Vitamin Pills: Miracle or Myth? (2018) HDTVRip 720p | P2

Название: Витамины: чудо или миф
Оригинальное название: Vitamin Pills: Miracle or Myth?
Год выхода: 2018
Жанр: Документальный, познавательный
Режиссер: Тристан Куинн

О фильме:
Почти половина из нас регулярно принимает витамины или биодобавки. Но правда ли они помогают нам? Доктор Джиллз Ео на практике попробует разобраться в том, что на самом деле скрыто за красивыми словами на упаковке.

Страна: Великобритания
Студия: BBC Studios
Продолжительность: 00:47:19
Перевод: Профессиональный (двухголосый закадровый) SDI Media

Файл
Кодек: AVC/H.264
Качество: HDTVRip 720p
Видео: 1280x720 (16:9), 25 fps, AVC (Н.264), High@L4,1, 4000 kbps avg, 0.174 bit/pixel
Звук: Русский 48 kHz, AC3 Dolby Digital, 2/0 (L,R) ch, ~160.00 kbps avg

Семпл

Релиз от: kyba
[+] MediaInfo
Complete name               : F:НаладкиНовая папкаВитамины_ чудо или миф_720p.mkv
Format                      : Matroska
Format version              : Version 4
File size                   : 1.38 GiB
Duration                    : 47 min 19 s
Overall bit rate            : 4 161 kb/s
Encoded date                : UTC 2019-07-27 12:31:33
Writing application         : mkvmerge v6.6.0 ('The Edge Of The In Between') built on Dec  1 2013 17:55:00
Writing library             : libebml v1.3.0 + libmatroska v1.4.1

Video
ID                          : 1
Format                      : AVC
Format/Info                 : Advanced Video Codec
Format profile              : High@L4.1
Format settings             : CABAC / 9 Ref Frames
Format settings, CABAC      : Yes
Format settings, Reference  : 9 frames
Codec ID                    : V_MPEG4/ISO/AVC
Duration                    : 47 min 19 s
Bit rate                    : 4 000 kb/s
Width                       : 1 280 pixels
Height                      : 720 pixels
Display aspect ratio        : 16:9
Frame rate mode             : Constant
Frame rate                  : 25.000 FPS
Color space                 : YUV
Chroma subsampling          : 4:2:0
Bit depth                   : 8 bits
Scan type                   : Progressive
Bits/(Pixel*Frame)          : 0.174
Stream size                 : 1.29 GiB (94%)
Writing library             : x264 core 157 r2935 545de2f
Encoding settings           : cabac=1 / ref=9 / deblock=1:-3:-3 / analyse=0x3:0x133 / me=umh / subme=9 / psy=1 / psy_rd=1.00:0.00 / mixed_ref=1 / me_range=32 / chroma_me=1 / trellis=2 / 8x8dct=1 / cqm=0 / deadzone=21,11 / fast_pskip=1 / chroma_qp_offset=-2 / threads=12 / lookahead_threads=2 / sliced_threads=0 / nr=0 / decimate=0 / interlaced=0 / bluray_compat=0 / constrained_intra=0 / bframes=8 / b_pyramid=2 / b_adapt=2 / b_bias=0 / direct=3 / weightb=1 / open_gop=0 / weightp=2 / keyint=250 / keyint_min=25 / scenecut=40 / intra_refresh=0 / rc_lookahead=50 / rc=2pass / mbtree=1 / bitrate=4000 / ratetol=1.0 / qcomp=0.60 / qpmin=0 / qpmax=69 / qpstep=4 / cplxblur=20.0 / qblur=0.5 / ip_ratio=1.40 / aq=1:1.00
Language                    : English
Default                     : Yes
Forced                      : No

Audio
ID                          : 2
Format                      : AC-3
Format/Info                 : Audio Coding 3
Commercial name             : Dolby Digital
Codec ID                    : A_AC3
Duration                    : 47 min 19 s
Bit rate mode               : Constant
Bit rate                    : 160 kb/s
Channel(s)                  : 2 channels
Channel layout              : L R
Sampling rate               : 48.0 kHz
Frame rate                  : 31.250 FPS (1536 SPF)
Bit depth                   : 16 bits
Compression mode            : Lossy
Stream size                 : 54.2 MiB (4%)
Language                    : Russian
Service kind                : Complete Main
Default                     : Yes
Forced                      : No



Скриншоты:
[+] Всего файлов в раздаче - 1:
Витамины_ чудо или миф_720p.mkv1.38 GB

Показать еще раздачи по запросу horizon:
2019-08-13 U Forza Horizon 4: Ultimate Editio [v 1.332.904.2 + DLCs] (2018) PC | RePack от FitGirl 44.65 GB ↑ 383 ↓ 715
2019-07-23 U BBC Horizon: Юпитер раскрывает свои тайны / Jupiter Revealed (2018) DVB | P2 662.68 MB ↑ 78 ↓ 6
2019-07-22 U BBC Horizon: Прощай, Кассини. Здравствуй, Сатурн! / Goodbye Cassini - Hello Saturn (2017) DVB | P2 670.84 MB ↑ 75 ↓ 12
2019-03-24 U Forza Horizon 3 (2016) PC | RePack от xatab 28.39 GB ↑ 222 ↓ 217
2019-01-24 U Bring Me the Horizon - Amo (2019) MP3 120.64 MB ↑ 173 ↓ 29
2018-11-23 U Землетрясение / The Quake / Skjelvet (2018) WEBRip | Horizon Studio 1.37 GB ↑ 207 ↓ 42
2018-11-11 U Война небес / Heavens War (2018) WEBRip 720p | Horizon Studio 2.16 GB ↑ 86 ↓ 24

Отзывы
Зарегистрируйтесь чтобы добавить комментарий.
Обратная связь
Copyleft ©