↑↓Torrent.by
Поиск
Логин: Регистрация
Пароль: Восстановить пароль
Загрузка...

«Альфа». Победить и вернуться (2019) SATRip

Скачать alfa-pobedit-i-vernutsya-2019-satrip.torrent
U Магнитная ссылка Размер: 559.43 MB Раздают: 140 Качают: 27 Добавлен: 2019-07-30 13:55:50
«Альфа». Победить и вернуться (2019) SATRip

Название: «Альфа». Победить и вернуться
Год выхода: 2019
Жанр: Документальный, история, спецподразделения
Режиссер: Константин Давыдкин

О фильме:
Долгое время они считались самыми засекреченными людьми в КГБ. Сотрудники Управления «А» Центра специального назначения ФСБ России отмечают 45-ю годовщину создания подразделения по борьбе с терроризмом - группы «А», которая получила широкую известность под названием «Альфа». На счету группы множество боевых операций - от участия в штурме президентского дворца в Кабуле до ликвидации террориста прямо на Красной площади. И среди них - ни одной неудачной. Сотрудникам «Альфы» приходилось освобождать заложников в самолётах и автобусах, в школах и больницах. Их служба всегда была опасной, но они знали - им нужно во что бы то ни стало победить и вернуться. Чтобы в час икс снова быть там, где надо спасать людей. И где помочь смогут только они.

Страна: Россия
Студия: ООО «ВИАНЖ ПРОДАКШН»
Продолжительность: 00:39:04
Перевод: Не требуется

Файл
Кодек: XviD / AC3
Качество: SATRip
Видео: Xvid, 720x400, ~1800 Kbps, 25,000 fps
Звук: AC3, 2 ch, 192 Kbps
Субтитры: Отсутствуют

Релиз от: alf62
[+] MI
Общее
Полное имя                               : D:ЗаписьААльфа.Победить.и.вернуться.2019.XviD.SATRip.alf62.avi
Формат                                   : AVI
Формат/Информация                        : Audio Video Interleave
Размер файла                             : 559 Мбайт
Продолжительность                        : 39 м.
Общий поток                              : 2001 Кбит/сек
Программа кодирования                    : VirtualDubMod 1.5.10.3 | www.virtualdub-fr.org || (build 2550/release)
Библиотека кодирования                   : VirtualDubMod build 2550/release

Видео
Идентификатор                            : 0
Формат                                   : MPEG-4 Visual
Профиль формата                          : Advanced Simple@L5
Параметр BVOP формата                    : 2
Параметр QPel формата                    : Нет
Параметр GMC формата                     : Без точки перехода
Параметр матрицы формата                 : Default (MPEG)
Идентификатор кодека                     : XVID
Идентификатор кодека/Подсказка           : XviD
Продолжительность                        : 39 м.
Битрейт                                  : 1800 Кбит/сек
Ширина                                   : 720 пикселей
Высота                                   : 400 пикселей
Соотношение сторон                       : 16:9
Частота кадров                           : 25,000 кадров/сек
Цветовое пространство                    : YUV
Субдискретизация насыщенности            : 4:2:0
Битовая глубина                          : 8 бит
Тип развёртки                            : Прогрессивная
Метод сжатия                             : С потерями
Бит/(Пиксели*Кадры)                      : 0.250
Размер потока                            : 503 Мбайт (90%)
Библиотека кодирования                   : XviD 73

Аудио
Идентификатор                            : 1
Формат                                   : AC-3
Формат/Информация                        : Audio Coding 3
Расширение режима                        : CM (complete main)
Параметр Endianness формата              : Big
Идентификатор кодека                     : 2000
Продолжительность                        : 39 м.
Вид битрейта                             : Постоянный
Битрейт                                  : 192 Кбит/сек
Каналы                                   : 2 канала
Расположение каналов                     : Front: L R
Частота                                  : 48,0 КГц
Частота кадров                           : 31,250 кадров/сек (1536 spf)
Метод сжатия                             : С потерями
Размер потока                            : 53,7 Мбайт (10%)
Выравнивание                             : Разделение по промежуткам
Продолжительность промежутка             : 40  мс. (1,00 видеокадр)
Время предзагрузки промежутка            : 500  мс.



Скриншоты:
[+] Всего файлов в раздаче - 1:
Альфа.Победить.и.вернуться.2019.XviD.SATRip.alf62.avi559.43 MB

Отзывы
Зарегистрируйтесь чтобы добавить комментарий.
Обратная связь
Copyleft ©