↑↓Torrent.by
Поиск
Логин: Регистрация
Пароль: Восстановить пароль
Загрузка...

Бэтмен: Тихо! / Batman: Hush (2019) BDRip 720p от OlLanDGroup | P

Скачать betmen-tiho-batman-hush-2019-bdrip-720p-ot-ollandgroup-p.torrent
U Магнитная ссылка Размер: 2.95 GB Раздают: 49 Качают: 52 Добавлен: 2019-07-30 20:34:44
Бэтмен: Тихо! / Batman: Hush (2019) BDRip 720p от OlLanDGroup | P

Бэтмен: Тихо! / Batman: Hush
«It's time to play a game»

Год выпуска: 2019
Страна: США
Производство: StarReel Entertainment, Warner Bros. Animation
Жанр:  Мультфильм, фантастика, боевик, приключения

Режиссёр: Джастин Коупленд
В ролях: Пейтон Лист, Дженнифер Моррисон, Ребекка Ромейн, Джерри О`Коннелл, Рэйн Уилсон, Тара Стронг, Ванесса Уильямс, Джейсон О'Мара, Джеффри Аренд

Перевод: Профессиональный (многоголосый, закадровый) | [HDRezka Studio]
Субтитры: Английские (полные, SDH)
Реклама: Отсутствует

Описание: В жизни знаменитого борца с преступностью, хорошо известного как темный рыцарь Готэма, наступают тяжелые времена. Помимо постоянных стычек с заклятыми врагами, которые значительно активизировались в последнее время, Бэтмен становится целью таинственного злоумышленника, имеющего далеко идущие планы относительно главного героя.

Качество: BDRip 720p | BDRip 720p | Batman Hush 2019 BluRay 720p DTS x264-MTeam
Продолжительность: 01:22:03

Формат: MKV
Видео кодек: MPEG-4 AVC
Аудио кодек: AC3
Видео: 1280x720 (16:9), 23,976 fps, x264 ~4 307 kbps avg, 0.195 bit/pixel
Аудио #1: 48 kHz, AC3 Dolby Digital, 2 (L,R) ch, ~192.00 kbps avg | RUS (HDRezka Studio)
Аудио #2: 48 kHz, AC3 Dolby Digital, 3/2 (L,C,R,l,r) + LFE ch, ~640.00 kbps avg | ENG

Дата премьеры (мир): 20 июля 2019
Дата премьеры (РФ):

Релиз:


[+] MediaInfo

Общее
Уникальный идентификатор                 : 19216583189806099474618498028760418903 (0xE74FAB35DA8061AB7B9250F17934A57)
Полное имя                               : F:OlLanDGroupBatman.Hush.2019.BDRip(720p).OllanDGroup.mkv
Формат                                   : Matroska
Версия формата                           : Version 4 / Version 2
Размер файла                             : 2,95 Гбайт
Продолжительность                        : 1 ч. 22 м.
Общий поток                              : 5142 Кбит/сек
Название фильма                          : Batman.Hush.2019   #TorpedoUK#
Дата кодирования                         : UTC 2019-07-30 16:05:14
Программа кодирования                    : mkvmerge v29.0.0 ('Like It Or Not') 64-bit
Библиотека кодирования                   : libebml v1.3.6 + libmatroska v1.4.9

Видео
Идентификатор                            : 1
Формат                                   : AVC
Формат/Информация                        : Advanced Video Codec
Профиль формата                          : High@L4.1
Параметр CABAC формата                   : Да
Параметр ReFrames формата                : 9 кадров
Идентификатор кодека                     : V_MPEG4/ISO/AVC
Продолжительность                        : 1 ч. 22 м.
Битрейт                                  : 4307 Кбит/сек
Ширина                                   : 1280 пикселей
Высота                                   : 720 пикселей
Соотношение сторон                       : 16:9
Режим частоты кадров                     : Постоянный
Частота кадров                           : 23,976 (24000/1001) кадра/сек
Цветовое пространство                    : YUV
Субдискретизация насыщенности            : 4:2:0
Битовая глубина                          : 8 бит
Тип развёртки                            : Прогрессивная
Бит/(Пиксели*Кадры)                      : 0.195
Размер потока                            : 2,47 Гбайт (84%)
Библиотека кодирования                   : x264 core 157 r2938 2b00a84 TnP@MTeam Mod
Настройки программы                      : cabac=1 / ref=9 / deblock=1:-3:-3 / analyse=0x3:0x133 / me=umh / subme=10 / psy=1 / psy_rd=1.05:0.00 / mixed_ref=1 / me_range=24 / chroma_me=1 / trellis=2 / 8x8dct=1 / cqm=0 / deadzone=21,11 / fast_pskip=0 / chroma_qp_offset=-2 / threads=12 / lookahead_threads=2 / sliced_threads=0 / nr=0 / decimate=0 / interlaced=0 / bluray_compat=0 / constrained_intra=0 / bframes=8 / b_pyramid=2 / b_adapt=2 / b_bias=0 / direct=3 / weightb=1 / open_gop=0 / weightp=2 / keyint=250 / keyint_min=24 / scenecut=40 / intra_refresh=0 / rc_lookahead=250 / rc=crf / mbtree=0 / crf=16.2 / qcomp=0.60 / qpmin=0 / qpmax=69 / qpstep=4 / vbv_maxrate=62500 / vbv_bufsize=78125 / crf_max=0.0 / nal_hrd=none / filler=0 / ip_ratio=1.30 / pb_ratio=1.20 / aq=3:0.80
Язык                                     : English
Default                                  : Да
Forced                                   : Нет
Цветовой диапазон                        : Limited
Основные цвета                           : BT.709
Коэффициенты матрицы                     : BT.709

Аудио #1
Идентификатор                            : 2
Формат                                   : AC-3
Формат/Информация                        : Audio Coding 3
Расширение режима                        : CM (complete main)
Параметр Endianness формата              : Big
Идентификатор кодека                     : A_AC3
Продолжительность                        : 1 ч. 22 м.
Вид битрейта                             : Постоянный
Битрейт                                  : 192 Кбит/сек
Каналы                                   : 2 канала
Расположение каналов                     : Front: L R
Частота                                  : 48,0 КГц
Частота кадров                           : 31,250 кадров/сек (1536 spf)
Битовая глубина                          : 16 бит
Метод сжатия                             : С потерями
Размер потока                            : 113 Мбайт (4%)
Заголовок                                : MVO [HDRezka Studio]
Язык                                     : Russian
Default                                  : Да
Forced                                   : Нет

Аудио #2
Идентификатор                            : 3
Формат                                   : AC-3
Формат/Информация                        : Audio Coding 3
Расширение режима                        : CM (complete main)
Параметр Endianness формата              : Big
Идентификатор кодека                     : A_AC3
Продолжительность                        : 1 ч. 22 м.
Вид битрейта                             : Постоянный
Битрейт                                  : 640 Кбит/сек
Каналы                                   : 6 каналов
Расположение каналов                     : Front: L C R, Side: L R, LFE
Частота                                  : 48,0 КГц
Частота кадров                           : 31,250 кадров/сек (1536 spf)
Битовая глубина                          : 16 бит
Метод сжатия                             : С потерями
Размер потока                            : 376 Мбайт (12%)
Заголовок                                : [Original]
Язык                                     : English
Default                                  : Нет
Forced                                   : Нет

Текст #1
Идентификатор                            : 4
Формат                                   : UTF-8
Идентификатор кодека                     : S_TEXT/UTF8
Идентификатор кодека/Информация          : UTF-8 Plain Text
Продолжительность                        : 1 ч. 17 м.
Битрейт                                  : 49 бит/сек
Count of elements                        : 1021
Размер потока                            : 28,3 Кбайт (0%)
Заголовок                                : Full
Язык                                     : English
Default                                  : Нет
Forced                                   : Нет

Текст #2
Идентификатор                            : 5
Формат                                   : UTF-8
Идентификатор кодека                     : S_TEXT/UTF8
Идентификатор кодека/Информация          : UTF-8 Plain Text
Продолжительность                        : 1 ч. 17 м.
Битрейт                                  : 54 бит/сек
Count of elements                        : 1172
Размер потока                            : 30,9 Кбайт (0%)
Заголовок                                : SDH
Язык                                     : English
Default                                  : Нет
Forced                                   : Нет

Меню
00:00:00.000                             : en:Chapter 01
00:10:00.016                             : en:Chapter 02
00:18:57.386                             : en:Chapter 03
00:28:54.232                             : en:Chapter 04
00:37:33.084                             : en:Chapter 05
00:44:44.557                             : en:Chapter 06
00:50:49.546                             : en:Chapter 07
00:59:13.008                             : en:Chapter 08
01:07:59.284                             : en:Chapter 09
01:16:19.116                             : en:Chapter 10
01:18:54.605                             : en:Chapter 11



Скриншоты:
[+] Всего файлов в раздаче - 1:
Batman.Hush.2019.BDRip(720p).OllanDGroup.mkv2.95 GB

Показать еще раздачи по запросу бэтмен:
2019-07-31 U Бэтмен: Тихо! / Batman: Hush (2019) HDRip-AVC от OlLanDGroup | P 745.21 MB ↑ 89 ↓ 31
2019-07-30 U Бэтмен: Тихо! / Batman: Hush (2019) WEB-DL 1080p | Flarrow Films 3.03 GB ↑ 50 ↓ 110
2019-06-09 U Бэтмен против Черепашек-ниндзя / Batman vs. Teenage Mutant Ninja Turtles (2019) WEB-DLRip от Portablius | P 743.16 MB ↑ 36 ↓ 8
2019-05-27 U Бэтмен против Черепашек-ниндзя / Batman vs. Teenage Mutant Ninja Turtles (2019) WEB-DLRip | ZM-SHOW 1.27 GB ↑ 156 ↓ 16
2019-05-26 U Бэтмен против Черепашек-ниндзя / Batman vs. Teenage Mutant Ninja Turtles (2019) WEB-DL 1080p | ZM-SHOW 3.09 GB ↑ 190 ↓ 49
2017-06-07 U Лего Фильм: Бэтмен / The LEGO Batman Movie (2017) BDRip от MegaPeer | Лицензия 1.46 GB ↑ 1942 ↓ 150
2017-06-06 U Лего Фильм: Бэтмен / The LEGO Batman Movie (2017) BDRip-HEVC 1080p от HEVC CLUB | iTunes 4.17 GB ↑ 65 ↓ 12

Отзывы
Зарегистрируйтесь чтобы добавить комментарий.
Обратная связь
Copyleft ©