↑↓Torrent.by
Поиск
Логин: Регистрация
Пароль: Восстановить пароль
Загрузка...

В клетке [01-07 из 10] (2019) WEBRip от GeneralFilm

Скачать v-kletke-01-07-iz-10-2019-webrip-ot-generalfilm.torrent
U Магнитная ссылка Размер: 3.80 GB Раздают: 115 Качают: 64 Добавлен: 2019-07-31 19:08:29
В клетке [01-07 из 10] (2019) WEBRip от GeneralFilm

Оригинальное название: В клетке
Год выпуска: 2019
Жанр:  Драма, криминал, спорт
Выпущено: Россия, «Киностудия КИТ» совместно с продюсерским центром «TeamFilm»
Режиссер: Артём Аксененко
В ролях: Павел Прилучный, Владимир Епифанцев, Артур Ваха, Агата Муцениеце, Екатерина Маликова, Наталья Парашкина, Даниил Воробьёв, Лаура Кеосаян, Алексей Ильин

О фильме: В Калининград одновременно возвращаются отец и сын Евдокимовы: Сергей, по прозвищу Волчок вышел после семи лет тюрьмы по 228 статье; его отец, Алексей Евдокимов, сбежал в родной город от проблем в Москве. Сергей, вернувшись домой, не понимает, как жить дальше - он обнаруживает что мать окончательно спилась, а бывшая любовь Ольга его уже и не ждала. Кажется, только младший брат Женя счастлив видеть Волчка. А еще Дилер - бывший одноклассник, который за те несколько лет, что Сергей провел в колонии, поднялся от простого барыги до мафиози средней руки. С момента встречи отца и сына начнётся история о преодолении семейных травм, боли и зависимости. Им предстоит выбирать между долгом и любовью, между жизнью и смертью.

Качество: WEBRip
Видео: XviD build 73, 720x272 (2.647), 23.976 fps, ~ 1370 Kbps (~ 0.291 bit/pixel)
Аудио: 48.0 kHz, AC3, 2/0 ch, 192 kbps
Продолжительность: 7 x ~ 00:49:00
Перевод: Не требуется [Русский]
Cубтитры: русские [На иностранную речь]

Внимание! Присутствует ненормативная лексика. Возможно наличие "всплывающих" надписей.

Релиз:


[+] MediaInfo
General
Complete name               : D:RazdachiV.Kletke.2019.WEBRip.GeneralFilmV.Kletke.e01.avi
Format                      : AVI
Format/Info                 : Audio Video Interleave
File size                   : 557 MiB
Duration                    : 49 min 43 s
Overall bit rate            : 1 566 kb/s
Writing application         : VirtualDubMod 1.5.10.3 | www.virtualdub-fr.org || (build 2550/release)
Writing library             : VirtualDubMod build 2550/release

Video
ID                          : 0
Format                      : MPEG-4 Visual
Format profile              : Advanced Simple@L5
Format settings             : BVOP1 / Custom Matrix
Format settings, BVOP       : 1
Format settings, QPel       : No
Format settings, GMC        : No warppoints
Format settings, Matrix     : Custom
Codec ID                    : XVID
Codec ID/Hint               : XviD
Duration                    : 49 min 43 s
Bit rate                    : 1 365 kb/s
Width                       : 720 pixels
Height                      : 272 pixels
Display aspect ratio        : 2.647
Frame rate                  : 23.976 (24000/1001) FPS
Color space                 : YUV
Chroma subsampling          : 4:2:0
Bit depth                   : 8 bits
Scan type                   : Progressive
Compression mode            : Lossy
Bits/(Pixel*Frame)          : 0.291
Stream size                 : 485 MiB (87%)
Writing library             : XviD 73

Audio
ID                          : 1
Format                      : AC-3
Format/Info                 : Audio Coding 3
Commercial name             : Dolby Digital
Codec ID                    : 2000
Duration                    : 49 min 43 s
Bit rate mode               : Constant
Bit rate                    : 192 kb/s
Channel(s)                  : 2 channels
Channel layout              : L R
Sampling rate               : 48.0 kHz
Frame rate                  : 31.250 FPS (1536 SPF)
Bit depth                   : 16 bits
Compression mode            : Lossy
Stream size                 : 68.3 MiB (12%)
Alignment                   : Split accross interleaves
Interleave, duration        : 42  ms (1.00 video frame)
Interleave, preload duratio : 500  ms
Service kind                : Complete Main



Скриншоты:
[+] Всего файлов в раздаче - 7:
V.Kletke.e01.avi557.07 MB
V.Kletke.e02.avi556.90 MB
V.Kletke.e03.avi557.13 MB
V.Kletke.e04.avi557.13 MB
V.Kletke.e05.avi553.23 MB
V.Kletke.e06.avi556.96 MB
V.Kletke.e07.avi556.91 MB

Показать еще раздачи по запросу клетке:
2019-08-15 U В клетке [01-10 из 10] (2019) WEBRip 720p от Files-x 14.36 GB ↑ 122 ↓ 390
2019-08-15 U В клетке [01-10 из 10] (2019) WEBRip-AVC от Files-x 6.07 GB ↑ 70 ↓ 179
2019-08-15 U В клетке [01-10 из 10] (2019) WEBRip от GeneralFilm 5.44 GB ↑ 34 ↓ 134
2019-08-07 U В клетке [01-08 из 10] (2019) WEBRip 720p от Files-x 11.48 GB ↑ 102 ↓ 174
2019-07-31 U В клетке [01-07 из 10] (2019) WEBRip-AVC от Files-x 4.23 GB ↑ 122 ↓ 141
2019-07-30 U В клетке [01-07 из 10] (2019) WEBRip 720p от Files-x 10.06 GB ↑ 279 ↓ 165
2019-07-18 U В клетке [01-06 из 10] (2019) WEBRip 720p от Files-x 8.69 GB ↑ 96 ↓ 163

Отзывы
Зарегистрируйтесь чтобы добавить комментарий.
Обратная связь
Copyleft ©