↑↓Torrent.by
Поиск
Логин: Регистрация
Пароль: Восстановить пароль
Загрузка...

Бэтмен: Тихо! / Batman: Hush (2019) HDRip-AVC от OlLanDGroup | P

Скачать betmen-tiho-batman-hush-2019-hdrip-avc-ot-ollandgroup-p.torrent
U Магнитная ссылка Размер: 745.21 MB Раздают: 89 Качают: 31 Добавлен: 2019-07-31 19:08:46
Бэтмен: Тихо! / Batman: Hush (2019) HDRip-AVC от OlLanDGroup | P

Бэтмен: Тихо! / Batman: Hush
«It's time to play a game»

Год выпуска: 2019
Страна: США
Производство: StarReel Entertainment, Warner Bros. Animation
Жанр:  Мультфильм, фантастика, боевик, приключения

Режиссёр: Джастин Коупленд
В ролях: Пейтон Лист, Дженнифер Моррисон, Ребекка Ромейн, Джерри О`Коннелл, Рэйн Уилсон, Тара Стронг, Ванесса Уильямс, Джейсон О'Мара, Джеффри Аренд

Перевод: Профессиональный (многоголосый, закадровый) | [HDRezka Studio]
Субтитры: Английские (полные, SDH)
Реклама: Отсутствует

Описание: В жизни знаменитого борца с преступностью, хорошо известного как темный рыцарь Готэма, наступают тяжелые времена. Помимо постоянных стычек с заклятыми врагами, которые значительно активизировались в последнее время, Бэтмен становится целью таинственного злоумышленника, имеющего далеко идущие планы относительно главного героя.

Качество: HDRip-AVC | BDRip 720p
Продолжительность: 01:22:03

Формат: MKV
Видео кодек: MPEG-4 AVC
Аудио кодек: AC3
Видео: 720x406 (16:9), 23,976 fps, x264 ~1076 kbps avg, 0.154 bit/pixel
Аудио : 48 kHz, AC3 Dolby Digital, 2 (L,R) ch, ~192.00 kbps avg | RUS (HDRezka Studio)

Дата премьеры (мир): 20 июля 2019
Дата премьеры (РФ):

Релиз: Rip by:


[+] MediaInfo

Общее
Уникальный идентификатор                 : 218799482889608398343066592539148610071 (0xA49B3F62259FF900B8CA1CA7AC60EA17)
Полное имя                               : D:ВидеоBatman.Hush.2019.HDRip-AVC.OllanDGroup.mkv
Формат                                   : Matroska
Версия формата                           : Version 2
Размер файла                             : 745 Мбайт
Продолжительность                        : 1 ч. 22 м.
Общий поток                              : 1270 Кбит/сек
Дата кодирования                         : UTC 2019-07-31 06:01:39
Программа кодирования                    : mkvmerge v7.8.0 ('River Man') 32bit built on Apr  3 2015 12:11:22
Библиотека кодирования                   : libebml v1.3.1 + libmatroska v1.4.2

Видео
Идентификатор                            : 1
Формат                                   : AVC
Формат/Информация                        : Advanced Video Codec
Профиль формата                          : High@L4.1
Параметр CABAC формата                   : Да
Параметр ReFrames формата                : 9 кадров
Идентификатор кодека                     : V_MPEG4/ISO/AVC
Продолжительность                        : 1 ч. 22 м.
Битрейт                                  : 1076 Кбит/сек
Ширина                                   : 720 пикселей
Высота                                   : 406 пикселей
Соотношение сторон                       : 16:9
Режим частоты кадров                     : Постоянный
Частота кадров                           : 23,976 кадра/сек
Цветовое пространство                    : YUV
Субдискретизация насыщенности            : 4:2:0
Битовая глубина                          : 8 бит
Тип развёртки                            : Прогрессивная
Бит/(Пиксели*Кадры)                      : 0.154
Размер потока                            : 618 Мбайт (83%)
Библиотека кодирования                   : x264 core 146 r2538 121396c
Настройки программы                      : cabac=1 / ref=9 / deblock=1:-3:-3 / analyse=0x3:0x133 / me=umh / subme=11 / psy=1 / psy_rd=1.00:0.00 / mixed_ref=1 / me_range=32 / chroma_me=1 / trellis=2 / 8x8dct=1 / cqm=0 / deadzone=21,11 / fast_pskip=0 / chroma_qp_offset=-2 / threads=6 / lookahead_threads=1 / sliced_threads=0 / nr=0 / decimate=0 / interlaced=0 / bluray_compat=0 / constrained_intra=0 / bframes=10 / b_pyramid=2 / b_adapt=1 / b_bias=0 / direct=3 / weightb=1 / open_gop=0 / weightp=2 / keyint=240 / keyint_min=23 / scenecut=40 / intra_refresh=0 / rc_lookahead=40 / rc=2pass / mbtree=0 / bitrate=1076 / ratetol=1.0 / qcomp=0.60 / qpmin=0 / qpmax=69 / qpstep=4 / cplxblur=20.0 / qblur=0.5 / vbv_maxrate=50000 / vbv_bufsize=52500 / nal_hrd=none / filler=0 / ip_ratio=1.40 / pb_ratio=1.30 / aq=1:1.00
Default                                  : Да
Forced                                   : Нет

Аудио
Идентификатор                            : 2
Формат                                   : AC-3
Формат/Информация                        : Audio Coding 3
Расширение режима                        : CM (complete main)
Параметр Endianness формата              : Big
Идентификатор кодека                     : A_AC3
Продолжительность                        : 1 ч. 22 м.
Вид битрейта                             : Постоянный
Битрейт                                  : 192 Кбит/сек
Каналы                                   : 2 канала
Расположение каналов                     : Front: L R
Частота                                  : 48,0 КГц
Битовая глубина                          : 16 бит
Метод сжатия                             : С потерями
Размер потока                            : 113 Мбайт (15%)
Default                                  : Да
Forced                                   : Нет




Скриншоты:
[+] Всего файлов в раздаче - 1:
Batman.Hush.2019.HDRip-AVC.OllanDGroup.mkv745.21 MB

Показать еще раздачи по запросу бэтмен:
2019-07-30 U Бэтмен: Тихо! / Batman: Hush (2019) BDRip 720p от OlLanDGroup | P 2.95 GB ↑ 49 ↓ 52
2019-07-30 U Бэтмен: Тихо! / Batman: Hush (2019) WEB-DL 1080p | Flarrow Films 3.03 GB ↑ 50 ↓ 110
2019-06-09 U Бэтмен против Черепашек-ниндзя / Batman vs. Teenage Mutant Ninja Turtles (2019) WEB-DLRip от Portablius | P 743.16 MB ↑ 36 ↓ 8
2019-05-27 U Бэтмен против Черепашек-ниндзя / Batman vs. Teenage Mutant Ninja Turtles (2019) WEB-DLRip | ZM-SHOW 1.27 GB ↑ 156 ↓ 16
2019-05-26 U Бэтмен против Черепашек-ниндзя / Batman vs. Teenage Mutant Ninja Turtles (2019) WEB-DL 1080p | ZM-SHOW 3.09 GB ↑ 190 ↓ 49
2017-06-07 U Лего Фильм: Бэтмен / The LEGO Batman Movie (2017) BDRip от MegaPeer | Лицензия 1.46 GB ↑ 1942 ↓ 150
2017-06-06 U Лего Фильм: Бэтмен / The LEGO Batman Movie (2017) BDRip-HEVC 1080p от HEVC CLUB | iTunes 4.17 GB ↑ 65 ↓ 12

Отзывы
Зарегистрируйтесь чтобы добавить комментарий.
Обратная связь
Copyleft ©