↑↓Torrent.by
Поиск
Логин: Регистрация
Пароль: Восстановить пароль
Загрузка...

Люди в черном: Интернэшнл / Люди в чорному: Інтернешнл / Men in Black International (2019) WEBRip 1080p | Line | UKR

Скачать lyudi-v-chernom-interneshnl-chornomu-nterneshnl-men-in-black-international-2019-webrip-1080p-line-ukr.torrent
U Магнитная ссылка Размер: 4.01 GB Раздают: 35 Качают: 11 Добавлен: 2019-08-01 05:32:13
Люди в черном: Интернэшнл / Люди в чорному: Інтернешнл / Men in Black International (2019) WEBRip 1080p | Line | UKR

Название: Люди в черном: Интернэшнл
Оригинальное название: Men in Black International
Год выхода: 2019
Жанр: Фантастика, боевик, комедия, приключения

Режиссер: Ф. Гэри Грей

В ролях: Крис Хемсворт, Тесса Томпсон, Кумэйл Нанджиани, Ребекка Фергюсон, Рейф Сполл, Эмма Томпсон, Лиам Нисон, Лоран Буржуа, Ларри Буржуа, Кайван Новак

О фильме:  Люди в черном, тайная организация на страже покоя и безопасности Земли, уже не раз защищали нас от нападения отбросов Вселенной. На этот раз самая большая опасность для мирового сообщества, которой агентам предстоит противостоять — шпион в их рядах

Страна: США
Продолжительность: 01:54:57
Перевод: Профессиональный (дублированный) [Line, Украинский]

Файл
Кодек: x.264
Качество: WEBRip 1080p
Видео: AVC, 1920x1080 (16:9), 23.976 fps, 4 603 kb/s
Аудио 1: AC-3, 48.0 kHz, 2 ch, 192 kb/s | UKR
Аудио 2: AC-3, 48.0 kHz, 2 ch, 192 kb/s | ENG
Субтитры: Корейские (хардсаб)

Семпл


[+] MI
General
Unique ID                                : 174965977505793547729639123459112075499 (0x83A138B65E9D916D941D3B9658A280EB)
Complete name                            : Men.in.Black.International.2019.WEBRip.1080p.UKR.ENG..mkv
Format                                   : Matroska
Format version                           : Version 4
File size                                : 4.01 GiB
Duration                                 : 1 h 54 min
Overall bit rate                         : 4 989 kb/s
Encoded date                             : UTC 2019-07-30 20:30:01
Writing application                      : mkvmerge v8.3.0 ('Over the Horizon') 64bit
Writing library                          : libebml v1.3.1 + libmatroska v1.4.2

Video
ID                                       : 1
Format                                   : AVC
Format/Info                              : Advanced Video Codec
Format profile                           : Baseline@L4
Format settings                          : 1 Ref Frames
Format settings, CABAC                   : No
Format settings, ReFrames                : 1 frame
Codec ID                                 : V_MPEG4/ISO/AVC
Duration                                 : 1 h 54 min
Bit rate                                 : 4 603 kb/s
Width                                    : 1 920 pixels
Height                                   : 1 080 pixels
Display aspect ratio                     : 16:9
Frame rate mode                          : Constant
Frame rate                               : 23.976 (24000/1001) FPS
Color space                              : YUV
Chroma subsampling                       : 4:2:0
Bit depth                                : 8 bits
Scan type                                : Progressive
Bits/(Pixel*Frame)                       : 0.093
Stream size                              : 3.70 GiB (92%)
Default                                  : Yes
Forced                                   : No
Color range                              : Limited

Audio #1
ID                                       : 2
Format                                   : AC-3
Format/Info                              : Audio Coding 3
Commercial name                          : Dolby Digital
Codec ID                                 : A_AC3
Duration                                 : 1 h 54 min
Bit rate mode                            : Constant
Bit rate                                 : 192 kb/s
Channel(s)                               : 2 channels
Channel layout                           : L R
Sampling rate                            : 48.0 kHz
Frame rate                               : 31.250 FPS (1536 SPF)
Bit depth                                : 16 bits
Compression mode                         : Lossy
Stream size                              : 158 MiB (4%)
Title                                    : DUB | Line
Language                                 : Ukrainian
Default                                  : Yes
Forced                                   : No

Audio #2
ID                                       : 3
Format                                   : AC-3
Format/Info                              : Audio Coding 3
Commercial name                          : Dolby Digital
Codec ID                                 : A_AC3
Duration                                 : 1 h 54 min
Bit rate mode                            : Constant
Bit rate                                 : 192 kb/s
Channel(s)                               : 2 channels
Channel layout                           : L R
Sampling rate                            : 48.0 kHz
Frame rate                               : 31.250 FPS (1536 SPF)
Bit depth                                : 16 bits
Compression mode                         : Lossy
Stream size                              : 158 MiB (4%)
Title                                    : Original
Language                                 : English
Default                                  : No
Forced                                   : No



Скриншоты:
[+] Всего файлов в раздаче - 1:
Men.in.Black.International.2019.WEBRip.1080p.UKR.ENG..mkv4.01 GB

Показать еще раздачи по запросу люди:
2019-08-01 U Люди в черном: Интернэшнл / Люди в чорному: Інтернешнл / Men in Black International (2019) WEBRip | Line | UKR 1.46 GB ↑ 35 ↓ 7
2019-07-28 U Люди в черном: Интернэшнл / Men in Black International (2019) WEBRip от Enigma | HDRezka Studio 1.45 GB ↑ 1395 ↓ 389
2019-07-28 U Люди в черном: Интернэшнл / Men in Black International (2019) WEBRip 720p | HDRezka Studio 2.71 GB ↑ 1003 ↓ 309
2019-03-02 U Лучше, чем люди [S01] (2018) WEBRip-AVC от Files-х 10.54 GB ↑ 123 ↓ 88
2019-03-02 U Лучше, чем люди [S01] (2018) WEBRip от GeneralFilm 8.71 GB ↑ 123 ↓ 203
2019-03-01 U Лучше, чем люди [S01] (2018) WEBRip 720p 19.07 GB ↑ 206 ↓ 490
2019-02-09 U Лучше, чем люди [01-13 из 16] (2018) WEBRip-AVC от Files-х 8.55 GB ↑ 31 ↓ 582

Отзывы
Зарегистрируйтесь чтобы добавить комментарий.
Обратная связь
Copyleft ©