↑↓Torrent.by
Поиск
Логин: Регистрация
Пароль: Восстановить пароль
Загрузка...

Петербург. Любовь. До востребования [01-02 из 04] (2019) HDTVRip от GeneralFilm

Скачать peterburg-lyubov-do-vostrebovaniya-01-02-iz-04-2019-hdtvrip-ot-generalfilm.torrent
U Магнитная ссылка Размер: 1.28 GB Раздают: 53 Качают: 31 Добавлен: 2019-08-01 18:55:35
Петербург. Любовь. До востребования [01-02 из 04] (2019) HDTVRip от GeneralFilm

Год выпуска: 2019
Жанр:  Мелодрама
Выпущено: Россия, Студия АСДС
Режиссер: Дмитрий Светозаров
В ролях: Юлия Пересильд, Сергей Перегудов, Александр Устюгов, Юрий Кузнецов, Эра Зиганшина, Рудольф Фурманов, Наталья Бурмистрова (II), Сергей Мардарь, Лариса Леонова, Татьяна Тузова, Егор Бакулин, Татьяна Полонская

О фильме: Молодая учительница из глубинки Светлана, приехав на семинар в Петербург, знакомится с геологом-нефтяником Федором, который влюбляется в наивную провинциалку. Он бросает экспедицию, делает девушке предложение и устраивает их уютное семейное гнездышко. Казалось бы, жизнь могла бы стать сплошным «днем счастья», но роскошный особняк со временем превращается для Светланы в золотую клетку. Однажды прогуливаясь по Петербургу, она знакомится с интеллигентным врачом скорой помощи, Березкиным. Влюблённый в свой родной город и увлекающийся историей, он превращает их совместные путешествия по Питеру в увлекательные экскурсии. Постепенно между молодыми людьми вспыхивает искреннее чувство.

Качество: HDTVRip
Видео: XviD, ~ 1600 Кбит/с, 720х400, 25 кадр/с
Аудио: Русский (AC3, 2 ch, 192 Кбит/с)
Продолжительность: 2 х ~ 00:50:00
Перевод: Не требуется
Субтитры: нет

Релиз:


[+] MediaInfo

Общее
Полное имя                               : D:Peterburg. Ljubov. Do vostrebovanija.HDTVRip.GeneralFilm1.Peterburg. Ljubov. Do vostrebovanija.HDTVRip.GeneralFilm.avi
Формат                                   : AVI
Формат/Информация                        : Audio Video Interleave
Размер файла                             : 656 Мбайт
Продолжительность                        : 51 м. 12 с.
Общий поток                              : 1791 Кбит/сек
Программа кодирования                    : VirtualDubMod 1.5.10.3 | www.virtualdub-fr.org || (build 2550/release)
Библиотека кодирования                   : VirtualDubMod build 2550/release

Видео
Идентификатор                            : 0
Формат                                   : MPEG-4 Visual
Профиль формата                          : Advanced Simple@L5
Параметр BVOP формата                    : 1
Параметр QPel формата                    : Нет
Параметр GMC формата                     : Без точки перехода
Параметр матрицы формата                 : Выборочная
Идентификатор кодека                     : XVID
Идентификатор кодека/Подсказка           : XviD
Продолжительность                        : 51 м. 12 с.
Битрейт                                  : 1589 Кбит/сек
Ширина                                   : 720 пикселей
Высота                                   : 400 пикселей
Соотношение сторон                       : 16:9
Частота кадров                           : 25,000 кадров/сек
Цветовое пространство                    : YUV
Субдискретизация насыщенности            : 4:2:0
Битовая глубина                          : 8 бит
Тип развёртки                            : Прогрессивная
Метод сжатия                             : С потерями
Бит/(Пиксели*Кадры)                      : 0.221
Размер потока                            : 582 Мбайт (89%)
Библиотека кодирования                   : XviD 1.2.1 (UTC 2008-12-04)

Аудио
Идентификатор                            : 1
Формат                                   : AC-3
Формат/Информация                        : Audio Coding 3
Расширение режима                        : CM (complete main)
Параметр Endianness формата              : Big
Идентификатор кодека                     : 2000
Продолжительность                        : 51 м. 12 с.
Вид битрейта                             : Постоянный
Битрейт                                  : 192 Кбит/сек
Каналы                                   : 2 канала
Расположение каналов                     : Front: L R
Частота                                  : 48,0 КГц
Частота кадров                           : 31,250 кадров/сек (1536 spf)
Битовая глубина                          : 16 бит
Метод сжатия                             : С потерями
Размер потока                            : 70,3 Мбайт (11%)
Выравнивание                             : Разделение по промежуткам
Продолжительность промежутка             : 40  мс. (1,00 видеокадр)
Время предзагрузки промежутка            : 500  мс.




Скриншоты:
[+] Всего файлов в раздаче - 2:
01.Peterburg. Ljubov. Do vostrebovanija.HDTVRip.GeneralFilm.avi655.98 MB
02.Peterburg. Ljubov. Do vostrebovanija.HDTVRip.GeneralFilm.avi652.73 MB

Показать еще раздачи по запросу петербург:
2019-08-03 U Петербург. Любовь. До востребования [01-04 из 04] (2019) HDTVRip 720p от GeneralFilm 5.27 GB ↑ 43 ↓ 8
2019-08-02 U Петербург. Любовь. До востребования [01-04 из 04] (2019) HDTVRip-AVC от Files-x 3.13 GB ↑ 63 ↓ 37
2019-08-02 U Петербург. Любовь. До востребования [01-04 из 04] (2019) HDTVRip от GeneralFilm 2.54 GB ↑ 74 ↓ 66
2019-08-01 U Петербург. Любовь. До востребования [01-02 из 04] (2019) HDTVRip-AVC от Files-x 1.57 GB ↑ 75 ↓ 25
2019-08-01 U Петербург. Любовь. До востребования [01х01-04 из 04] (2019) SATRip-AVC 2.46 GB ↑ 3 ↓ 1
2019-01-27 U Санкт-Петербург / Saint Petersburg (2018) WEBRip 1440p 428.97 MB ↑ 109 ↓ 11
2019-01-19 U Санкт-Петербург / Saint Petersburg (2018) WEBRip 2160p 788.45 MB ↑ 235 ↓ 44

Отзывы
Зарегистрируйтесь чтобы добавить комментарий.
Обратная связь
Copyleft ©