↑↓Torrent.by
Поиск
Логин: Регистрация
Пароль: Восстановить пароль
Загрузка...

Мстители: Финал / Avengers: Endgame (2019) BDRip 1080p от селезень | D, P | iTunes

Скачать mstiteli-final-avengers-endgame-2019-bdrip-1080p-ot-selezen-d-p-itunes.torrent
U Магнитная ссылка Размер: 17.52 GB Раздают: 1177 Качают: 1078 Добавлен: 2019-08-02 08:20:46
Мстители: Финал / Avengers: Endgame (2019) BDRip 1080p от селезень | D, P | iTunes

Название: Мстители: Финал
Оригинальное название: Avengers: Endgame
Год выхода: 2019
Жанр: Фантастика, фэнтези, боевик, приключения
Режиссер: Энтони Руссо, Джо Руссо
В ролях: Бри Ларсон, Линда Карделлини, Скарлетт Йоханссон, Карен Гиллан, Тесса Томпсон, Роберт Дауни мл., Крис Хемсворт, Крис Эванс, Эванджелин Лилли, Хейли Этвелл, Марк Руффало, Джереми Реннер, Дон Чидл, Пол Радд

О фильме: Оставшиеся в живых члены команды Мстителей и их союзники должны разработать новый план, который поможет противостоять разрушительным действиям могущественного титана Таноса. После наиболее масштабной и трагической битвы в истории они не могут допустить ошибку.

Страна: США
Студия: Marvel Studios
Продолжительность: 03:01:11
Перевод(ы):
#1: Дублированный | iTunes
#2: Профессиональный многоголосый | HDRezka Studio

Качество: BDRip 1080p
Видео: MPEG-4 AVC, 1920x804, 12.6 Mbit/s, 23.976 fps
Звук:
Аудио #01: 48 kHz, AC3, 5.1, 384 Kbps | iTunes | RUS |
Аудио #02: 48 kHz, AC3, 2.0, 256 Kbps | HDRezka Studio | RUS |
Аудио #03: 48 kHz, AC3, 5.1, 640 Kbps | Оригинал |  ENG |
Субтитры: Русские (2 x Forced, Full, SDH), английские

Релиз:


[+] MI
General
Unique ID                   : 333231876079303906951445005178061261765 (0xFAB21FF699413745B2C5F8F8E7490BC5)
Complete name               : D:Video111Avengers.Endgame.2019.BDRip.1080p.seleZen.mkv
Format                      : Matroska
Format version              : Version 4
File size                   : 17.5 GiB
Duration                    : 3 h 1 min
Overall bit rate            : 13.8 Mb/s
Movie name                  : Avenger's Endgame 2019 from селезень
Encoded date                : UTC 2019-08-01 18:28:11
Writing application         : mkvmerge v22.0.0 ('At The End Of The World') 64-bit
Writing library             : libebml v1.3.5 + libmatroska v1.4.8

Video
ID                          : 1
Format                      : AVC
Format/Info                 : Advanced Video Codec
Format profile              : High@L4.1
Format settings             : CABAC / 5 Ref Frames
Format settings, CABAC      : Yes
Format settings, Reference  : 5 frames
Codec ID                    : V_MPEG4/ISO/AVC
Duration                    : 3 h 1 min
Bit rate                    : 12.6 Mb/s
Width                       : 1 920 pixels
Height                      : 804 pixels
Display aspect ratio        : 2.40:1
Frame rate mode             : Constant
Frame rate                  : 23.976 (24000/1001) FPS
Color space                 : YUV
Chroma subsampling          : 4:2:0
Bit depth                   : 8 bits
Scan type                   : Progressive
Bits/(Pixel*Frame)          : 0.339
Stream size                 : 15.9 GiB (91%)
Title                       : MTeam
Writing library             : x264 core 157 r2938 2b00a84 TnP@MTeam Mod
Encoding settings           : cabac=1 / ref=5 / deblock=1:-3:-3 / analyse=0x3:0x133 / me=umh / subme=10 / psy=1 / psy_rd=1.05:0.00 / mixed_ref=1 / me_range=32 / chroma_me=1 / trellis=2 / 8x8dct=1 / cqm=0 / deadzone=21,11 / fast_pskip=0 / chroma_qp_offset=-2 / threads=12 / lookahead_threads=2 / sliced_threads=0 / nr=0 / decimate=0 / interlaced=0 / bluray_compat=0 / constrained_intra=0 / bframes=8 / b_pyramid=2 / b_adapt=2 / b_bias=0 / direct=3 / weightb=1 / open_gop=0 / weightp=2 / keyint=250 / keyint_min=24 / scenecut=40 / intra_refresh=0 / rc_lookahead=250 / rc=crf / mbtree=0 / crf=15.3 / qcomp=0.60 / qpmin=0 / qpmax=69 / qpstep=4 / vbv_maxrate=62500 / vbv_bufsize=78125 / crf_max=0.0 / nal_hrd=none / filler=0 / ip_ratio=1.30 / pb_ratio=1.20 / aq=3:0.80
Language                    : English
Default                     : Yes
Forced                      : No
Color range                 : Limited
Color primaries             : BT.709
Matrix coefficients         : BT.709

Audio #1
ID                          : 2
Format                      : AC-3
Format/Info                 : Audio Coding 3
Commercial name             : Dolby Digital
Codec ID                    : A_AC3
Duration                    : 3 h 1 min
Bit rate mode               : Constant
Bit rate                    : 384 kb/s
Channel(s)                  : 6 channels
Channel layout              : L R C LFE Ls Rs
Sampling rate               : 48.0 kHz
Frame rate                  : 31.250 FPS (1536 SPF)
Bit depth                   : 16 bits
Compression mode            : Lossy
Stream size                 : 499 MiB (3%)
Title                       : iTunes
Language                    : Russian
Service kind                : Complete Main
Default                     : Yes
Forced                      : Yes

Audio #2
ID                          : 3
Format                      : AC-3
Format/Info                 : Audio Coding 3
Commercial name             : Dolby Digital
Codec ID                    : A_AC3
Duration                    : 3 h 1 min
Bit rate mode               : Constant
Bit rate                    : 256 kb/s
Channel(s)                  : 2 channels
Channel layout              : L R
Sampling rate               : 48.0 kHz
Frame rate                  : 31.250 FPS (1536 SPF)
Bit depth                   : 16 bits
Compression mode            : Lossy
Stream size                 : 333 MiB (2%)
Title                       : MVO [HDRezka Studio]
Language                    : Russian
Service kind                : Complete Main
Default                     : No
Forced                      : No

Audio #3
ID                          : 4
Format                      : AC-3
Format/Info                 : Audio Coding 3
Commercial name             : Dolby Digital
Codec ID                    : A_AC3
Duration                    : 3 h 1 min
Bit rate mode               : Constant
Bit rate                    : 640 kb/s
Channel(s)                  : 6 channels
Channel layout              : L R C LFE Ls Rs
Sampling rate               : 48.0 kHz
Frame rate                  : 31.250 FPS (1536 SPF)
Bit depth                   : 16 bits
Compression mode            : Lossy
Stream size                 : 829 MiB (5%)
Title                       : Original
Language                    : English
Service kind                : Complete Main
Default                     : No
Forced                      : No

Text #1
ID                          : 5
Format                      : UTF-8
Codec ID                    : S_TEXT/UTF8
Codec ID/Info               : UTF-8 Plain Text
Duration                    : 2 h 17 min
Bit rate                    : 1 b/s
Count of elements           : 34
Stream size                 : 1.14 KiB (0%)
Title                       : Forced (iTunes)
Language                    : Russian
Default                     : Yes
Forced                      : Yes

Text #2
ID                          : 6
Format                      : UTF-8
Codec ID                    : S_TEXT/UTF8
Codec ID/Info               : UTF-8 Plain Text
Duration                    : 3 h 0 min
Bit rate                    : 78 b/s
Count of elements           : 2627
Stream size                 : 104 KiB (0%)
Title                       : SDH (iTunes)
Language                    : Russian
Default                     : No
Forced                      : No

Text #3
ID                          : 7
Format                      : UTF-8
Codec ID                    : S_TEXT/UTF8
Codec ID/Info               : UTF-8 Plain Text
Duration                    : 2 h 33 min
Bit rate                    : 1 b/s
Count of elements           : 35
Stream size                 : 1.57 KiB (0%)
Title                       : Forced (Enigma)
Language                    : Russian
Default                     : No
Forced                      : No

Text #4
ID                          : 8
Format                      : UTF-8
Codec ID                    : S_TEXT/UTF8
Codec ID/Info               : UTF-8 Plain Text
Duration                    : 2 h 49 min
Bit rate                    : 80 b/s
Count of elements           : 2222
Stream size                 : 100 KiB (0%)
Title                       : Full (Ruf)
Language                    : Russian
Default                     : No
Forced                      : No

Text #5
ID                          : 9
Format                      : UTF-8
Codec ID                    : S_TEXT/UTF8
Codec ID/Info               : UTF-8 Plain Text
Duration                    : 2 h 47 min
Bit rate                    : 49 b/s
Count of elements           : 2329
Stream size                 : 61.1 KiB (0%)
Title                       : Full
Language                    : English
Default                     : No
Forced                      : No

Text #6
ID                          : 10
Format                      : UTF-8
Codec ID                    : S_TEXT/UTF8
Codec ID/Info               : UTF-8 Plain Text
Duration                    : 3 h 0 min
Bit rate                    : 51 b/s
Count of elements           : 2630
Stream size                 : 68.3 KiB (0%)
Title                       : SDH
Language                    : English
Default                     : No
Forced                      : No

Text #7
ID                          : 11
Format                      : UTF-8
Codec ID                    : S_TEXT/UTF8
Codec ID/Info               : UTF-8 Plain Text
Duration                    : 3 h 0 min
Bit rate                    : 65 b/s
Count of elements           : 2630
Stream size                 : 86.9 KiB (0%)
Title                       : SDH Colored
Language                    : English
Default                     : No
Forced                      : No

Menu
00:00:00.000                : en:Chapter 01
00:08:05.902                : en:Chapter 02
00:20:01.700                : en:Chapter 03
00:26:15.282                : en:Chapter 04
00:36:57.173                : en:Chapter 05
00:43:20.598                : en:Chapter 06
00:48:44.171                : en:Chapter 07
00:57:36.745                : en:Chapter 08
01:07:12.612                : en:Chapter 09
01:16:02.516                : en:Chapter 10
01:26:25.430                : en:Chapter 11
01:32:20.118                : en:Chapter 12
01:38:55.805                : en:Chapter 13
01:48:12.361                : en:Chapter 14
01:57:26.915                : en:Chapter 15
02:05:00.243                : en:Chapter 16
02:15:06.432                : en:Chapter 17
02:25:50.450                : en:Chapter 18
02:34:37.935                : en:Chapter 19
02:43:03.899                : en:Chapter 20
02:49:05.344                : en:Chapter 21



Скриншоты:
[+] Всего файлов в раздаче - 1:
Avengers.Endgame.2019.BDRip.1080p.seleZen.mkv17.52 GB

Показать еще раздачи по запросу мстители:
Сегодня U Мстители: Финал / Avengers: Endgame (2019) WEBRip от Deadmauvlad | D | Open Matte | Локализованная версия 2.19 GB ↑ 21 ↓ 5
Сегодня U Мстители: Финал / Avengers: Endgame (2019) HDRip от Scarabey | iTunes 2.71 GB ↑ 22 ↓ 9
2019-08-16 U Мстители: Финал / Avengers: Endgame (2019) WEBRip 1080p | D, P | Open Matte | Локализованная версия 6.84 GB ↑ 147 ↓ 68
2019-08-09 U Мстители: Финал / Avengers: Endgame (2019) BDRip-HEVC 720p | D | iTunes 3.13 GB ↑ 37 ↓ 19
2019-08-07 U Мстители: Финал / Avengers: Endgame (2019) BDRip-HEVC 1080p от HANNIBAL | iTunes 8.02 GB ↑ 49 ↓ 37
2019-08-07 U Мстители: Финал / Avengers: Endgame (2019) BDRip 1080p от qqss44 & MegaPeer | iTunes 9.63 GB ↑ 88 ↓ 69
2019-08-07 U Мстители: Финал / Avengers: Endgame (2019) BDRip 1080p от HELLYWOOD | iTunes 11.88 GB ↑ 216 ↓ 105

Отзывы
Зарегистрируйтесь чтобы добавить комментарий.
Обратная связь
Copyleft ©