↑↓Torrent.by
Поиск
Логин: Регистрация
Пароль: Восстановить пароль
Загрузка...

Мстители: Финал / Avengers: Endgame (2019) HDRip-AVC от New-Team | D

Скачать mstiteli-final-avengers-endgame-2019-hdrip-avc-ot-new-team-d.torrent
U Магнитная ссылка Размер: 1.48 GB Раздают: 74 Качают: 31 Добавлен: 2019-08-02 15:47:27
Мстители: Финал / Avengers: Endgame (2019) HDRip-AVC от New-Team | D

Мстители: Финал
Avengers: Endgame

«Avenge the fallen»

Страна: США
Жанр:  фантастика, боевик, приключения
Год выпуска: 2019
Продолжительность: 03:01:32

Перевод: Профессиональный (полное дублирование) [iTunes]
Субтитры: русские (форсированные, полные, SDH)
Оригинальная аудиодорожка: нет

Режиссер: Энтони Руссо / Anthony Russo, Джо Руссо / Joe Russo

В ролях: Роберт Дауни мл., Крис Эванс, Марк Руффало, Крис Хемсворт, Скарлетт Йоханссон, Джереми Реннер, Дон Чидл, Пол Радд, Бри Ларсон, Карен Гиллан

Описание: Оставшиеся в живых члены команды Мстителей и их союзники должны разработать новый план, который поможет противостоять разрушительным действиям могущественного титана Таноса. После наиболее масштабной и трагической битвы в истории они не могут допустить ошибку.

Релиз:

Автор рипа: stalkerok

Семпл

Качество видео: HDRip-AVC | Исходник: Avengers.Endgame.REPACK.2019.BluRay.1080p.DTS-HD.MA.7.1.x264-MTeam
Формат видео: MKV
Видео кодек: AVC
Аудио кодек: AAC
Видео: AVC, 976 Кбит/сек, 874x366 (2.40:1), 23,976 кадр/сек
Аудио: AAC, 192 Кбит/сек, 48 КГц, 5.1 - русский
Навигация по главам: есть


[+] x264/MediaInfo


---[Information] [02.08.2019 13:35:59] x264 [info]: frame I:2206  Avg QP:16.64  size: 32828
---[Information] [02.08.2019 13:35:59] x264 [info]: frame P:58730 Avg QP:18.86  size: 11035
---[Information] [02.08.2019 13:35:59] x264 [info]: frame B:199716 Avg QP:21.65  size:  3035

General
Unique ID                                : 156550729467066943114958567706659778117 (0x75C692E290FFC0F6E668C5CAB485EE45)
Complete name                            : C:tempAvengers EndgameAvengers.Endgame.2019.HDRip.x264.Rus.stalkerok.New-Team.mkv
Format                                   : Matroska
Format version                           : Version 4
File size                                : 1.48 GiB
Duration                                 : 3 h 1 min
Overall bit rate                         : 1 168 kb/s
Movie name                               : Avengers: Endgame (2019) | Rip by stalkerok
Encoded date                             : UTC 2019-08-02 10:57:06
Writing application                      : mkvmerge v33.1.0 ('Primrose') 64-bit
Writing library                          : libebml v1.3.7 + libmatroska v1.5.0

Video
ID                                       : 1
Format                                   : AVC
Format/Info                              : Advanced Video Codec
Format profile                           : High@L4.1
Format settings                          : CABAC / 12 Ref Frames
Format settings, CABAC                   : Yes
Format settings, RefFrames               : 12 frames
Codec ID                                 : V_MPEG4/ISO/AVC
Duration                                 : 3 h 1 min
Bit rate                                 : 976 kb/s
Width                                    : 874 pixels
Height                                   : 366 pixels
Display aspect ratio                     : 2.40:1
Frame rate mode                          : Constant
Frame rate                               : 23.976 FPS
Color space                              : YUV
Chroma subsampling                       : 4:2:0
Bit depth                                : 8 bits
Scan type                                : Progressive
Bits/(Pixel*Frame)                       : 0.127
Stream size                              : 1.24 GiB (83%)
Title                                    : Avengers: Endgame (2019) | Rip by stalkerok
Writing library                          : x264 core 157 r2945 72db437
Encoding settings                        : cabac=1 / ref=12 / deblock=1:-2:-1 / analyse=0x3:0x133 / me=umh / subme=11 / psy=1 / psy_rd=1.00:0.00 / mixed_ref=1 / me_range=32 / chroma_me=1 / trellis=2 / 8x8dct=1 / cqm=0 / deadzone=21,11 / fast_pskip=0 / chroma_qp_offset=-2 / threads=11 / lookahead_threads=2 / sliced_threads=0 / nr=0 / decimate=1 / interlaced=0 / bluray_compat=0 / constrained_intra=0 / bframes=14 / b_pyramid=2 / b_adapt=2 / b_bias=0 / direct=3 / weightb=1 / open_gop=0 / weightp=2 / keyint=240 / keyint_min=23 / scenecut=40 / intra_refresh=0 / rc_lookahead=60 / rc=crf / mbtree=0 / crf=18.8 / qcomp=0.65 / qpmin=0 / qpmax=69 / qpstep=4 / vbv_maxrate=50000 / vbv_bufsize=62500 / crf_max=0.0 / nal_hrd=none / filler=0 / ip_ratio=1.40 / pb_ratio=1.30 / aq=3:0.90 / zones=243245,260651,q=34
Default                                  : Yes
Forced                                   : No

Audio
ID                                       : 2
Format                                   : AAC LC SBR
Format/Info                              : Advanced Audio Codec Low Complexity with Spectral Band Replication
Commercial name                          : HE-AAC
Format settings                          : Explicit
Codec ID                                 : A_AAC-2
Duration                                 : 3 h 1 min
Bit rate                                 : 192 kb/s
Channel(s)                               : 6 channels
Channel layout                           : C L R Ls Rs LFE
Sampling rate                            : 48.0 kHz
Frame rate                               : 23.438 FPS (2048 SPF)
Compression mode                         : Lossy
Delay relative to video                  : 31 ms
Stream size                              : 249 MiB (16%)
Title                                    : Dub
Language                                 : Russian
Default                                  : Yes
Forced                                   : No

Text #1
ID                                       : 3
Format                                   : UTF-8
Codec ID                                 : S_TEXT/UTF8
Codec ID/Info                            : UTF-8 Plain Text
Duration                                 : 2 h 17 min
Bit rate                                 : 1 b/s
Count of elements                        : 41
Stream size                              : 1.39 KiB (0%)
Title                                    : Forced
Language                                 : Russian
Default                                  : Yes
Forced                                   : No

Text #2
ID                                       : 4
Format                                   : UTF-8
Codec ID                                 : S_TEXT/UTF8
Codec ID/Info                            : UTF-8 Plain Text
Duration                                 : 2 h 49 min
Bit rate                                 : 80 b/s
Count of elements                        : 2222
Stream size                              : 100 KiB (0%)
Title                                    : Full (Ruf)
Language                                 : Russian
Default                                  : No
Forced                                   : No

Text #3
ID                                       : 5
Format                                   : UTF-8
Codec ID                                 : S_TEXT/UTF8
Codec ID/Info                            : UTF-8 Plain Text
Duration                                 : 3 h 0 min
Bit rate                                 : 78 b/s
Count of elements                        : 2627
Stream size                              : 104 KiB (0%)
Title                                    : SDH (iTunes)
Language                                 : Russian
Default                                  : No
Forced                                   : No

Menu
00:00:00.000                             : en:Chapter 01
00:08:05.902                             : en:Chapter 02
00:20:01.700                             : en:Chapter 03
00:26:15.282                             : en:Chapter 04
00:36:57.173                             : en:Chapter 05
00:43:20.598                             : en:Chapter 06
00:48:44.171                             : en:Chapter 07
00:57:36.745                             : en:Chapter 08
01:07:12.612                             : en:Chapter 09
01:16:02.516                             : en:Chapter 10
01:26:25.430                             : en:Chapter 11
01:32:20.118                             : en:Chapter 12
01:38:55.805                             : en:Chapter 13
01:48:12.361                             : en:Chapter 14
01:57:26.915                             : en:Chapter 15
02:05:00.243                             : en:Chapter 16
02:15:06.432                             : en:Chapter 17
02:25:50.450                             : en:Chapter 18
02:34:37.935                             : en:Chapter 19
02:43:03.899                             : en:Chapter 20
02:49:05.344                             : en:Chapter 21




[+] Скрытый текст
stalkerok
             

source
             



Скриншоты:
[+] Всего файлов в раздаче - 1:
Avengers.Endgame.2019.HDRip.x264.Rus.stalkerok.New-Team.mkv1.48 GB

Показать еще раздачи по запросу мстители:
2019-08-16 U Мстители: Финал / Avengers: Endgame (2019) WEBRip 1080p | D, P | Open Matte | Локализованная версия 6.84 GB ↑ 147 ↓ 68
2019-08-09 U Мстители: Финал / Avengers: Endgame (2019) BDRip-HEVC 720p | D | iTunes 3.13 GB ↑ 37 ↓ 19
2019-08-07 U Мстители: Финал / Avengers: Endgame (2019) BDRip-HEVC 1080p от HANNIBAL | iTunes 8.02 GB ↑ 48 ↓ 37
2019-08-07 U Мстители: Финал / Avengers: Endgame (2019) BDRip 1080p от qqss44 & MegaPeer | iTunes 9.63 GB ↑ 88 ↓ 69
2019-08-07 U Мстители: Финал / Avengers: Endgame (2019) BDRip 1080p от HELLYWOOD | iTunes 11.88 GB ↑ 216 ↓ 105
2019-08-05 U Мстители: Финал / Avengers: Endgame (2019) BDRip-AVC от HELLYWOOD | iTunes 2.83 GB ↑ 125 ↓ 56
2019-08-05 U Мстители: Финал / Avengers: Endgame (2019) BDRip-HEVC 1080p | iTunes 4.49 GB ↑ 273 ↓ 154

Отзывы
Зарегистрируйтесь чтобы добавить комментарий.
Обратная связь
Copyleft ©