↑↓Torrent.by
Поиск
Логин: Регистрация
Пароль: Восстановить пароль
Загрузка...

Беглецы (2017) WEB-DLRip | iTunes

Скачать beglecy-2017-web-dlrip-itunes.torrent
U Магнитная ссылка Размер: 1.46 GB Раздают: 196 Качают: 72 Добавлен: 2019-08-03 07:09:58
Беглецы (2017) WEB-DLRip | iTunes

Название: Беглецы
Год выхода: 2017
Жанр: Комедия
Страна: Россия, Латвия
Перевод: Не требуется
Продолжительность: 01:23:32
Режиссер: Ара Оганесян
В ролях: Евгений Ткачук, Равшана Куркова, Константин Крюков, Максим Виторган, Алексей Маклаков, Анастасия Калманович, Олег Верещагин и др.

О фильме: Незадачливый всенародный любимец и поп-певец Алекс в компании киллера Степы и нимфоманки Насти убегают от нанятых продюсерским центром всемогущих убийц с крупнокалиберными автоматами и черным хаммером.

Файл
Формат: AVI
Качество: WEB-DLRip
Видео: Xvid 73, 704x384, ~2103 kbps, 24,000 fps
Звук: русский, AC3, 5.1 ch, 48 kHz, 384 kbps
Субтитры: нет

Рип и релиз от:


[+] MI
Общее
Полное имя                               : E:Torrent2BegleciWEBDLRip.avi
Формат                                   : AVI
Формат/Информация                        : Audio Video Interleave
Профиль формата                          : OpenDML
Размер файла                             : 1,46 Гбайт
Продолжительность                        : 1 ч. 23 м.
Общий поток                              : 2499 Кбит/сек
Программа кодирования                    : XviD4PSP 6.0 / 53.6.0

Видео
Идентификатор                            : 0
Формат                                   : MPEG-4 Visual
Профиль формата                          : Advanced Simple@L5
Настройки формата                        : BVOP1 / Custom Matrix
Параметр BVOP формата                    : 1
Параметр QPel формата                    : Нет
Параметр GMC формата                     : Без точки перехода
Параметр матрицы формата                 : Выборочная
Идентификатор кодека                     : XVID
Идентификатор кодека/Подсказка           : XviD
Продолжительность                        : 1 ч. 23 м.
Битрейт                                  : 2103 Кбит/сек
Ширина                                   : 704 пикселя
Высота                                   : 384 пикселя
Соотношение сторон                       : 1,85:1
Частота кадров                           : 24,000 кадра/сек
Цветовое пространство                    : YUV
Субдискретизация насыщенности            : 4:2:0
Битовая глубина                          : 8 бит
Тип развёртки                            : Прогрессивная
Метод сжатия                             : С потерями
Бит/(Пиксели*Кадры)                      : 0.324
Размер потока                            : 1,23 Гбайт (84%)
Библиотека кодирования                   : XviD 73

Аудио
Идентификатор                            : 1
Формат                                   : AC-3
Формат/Информация                        : Audio Coding 3
Параметр Endianness формата              : Big
Идентификатор кодека                     : 2000
Продолжительность                        : 1 ч. 23 м.
Вид битрейта                             : Постоянный
Битрейт                                  : 384 Кбит/сек
Каналы                                   : 6 каналов
Расположение каналов                     : Front: L C R, Side: L R, LFE
Частота                                  : 48,0 КГц
Частота кадров                           : 31,250 кадров/сек (1536 SPF)
Битовая глубина                          : 16 бит
Метод сжатия                             : С потерями
Размер потока                            : 229 Мбайт (15%)
Выравнивание                             : Соединение по промежуткам
Продолжительность промежутка             : 32  мс. (0,77 видеокадр)




Скриншоты:
[+] Всего файлов в раздаче - 1:
BegleciWEBDLRip.avi1.46 GB

Похожие раздачи по запросу - беглецы:
2019-08-05 U Беглецы (2017) WEB-DLRip от GeneralFilm | iTunes 1.37 GB ↑ 70 ↓ 20
2019-08-03 U Беглецы (2017) WEB-DLRip-AVC от ExKinoRay | iTunes 1.55 GB ↑ 107 ↓ 50
2019-08-03 U Беглецы (2017) WEB-DL 1080p | iTunes 3.27 GB ↑ 137 ↓ 66
2019-06-04 U Блейк Крауч - Беглецы. Неземное сияние (2019) MP3 498.49 MB ↑ 44 ↓ 7

Отзывы
Зарегистрируйтесь чтобы добавить комментарий.
Обратная связь
Copyleft ©