↑↓Torrent.by
Поиск
Логин: Регистрация
Пароль: Восстановить пароль
Загрузка...

Беглецы (2017) WEB-DL 1080p | iTunes

Скачать beglecy-2017-web-dl-1080p-itunes.torrent
U Магнитная ссылка Размер: 3.27 GB Раздают: 137 Качают: 66 Добавлен: 2019-08-03 07:10:21
Беглецы (2017) WEB-DL 1080p | iTunes

Название: Беглецы
Год выхода: 2017
Жанр: Комедия
Страна: Россия, Латвия
Перевод: Не требуется
Продолжительность: 01:23:32
Режиссер: Ара Оганесян
В ролях: Евгений Ткачук, Равшана Куркова, Константин Крюков, Максим Виторган, Алексей Маклаков, Анастасия Калманович, Олег Верещагин и др.

О фильме: Незадачливый всенародный любимец и поп-певец Алекс в компании киллера Степы и нимфоманки Насти убегают от нанятых продюсерским центром всемогущих убийц с крупнокалиберными автоматами и черным хаммером.

Файл
Качество: WEB-DL 1080p
Видео: MPEG-4 AVC, 1918x1040, 5220 kbps, 24,000 fps
Звук: русский, AC3, 5.1 ch, 48 kHz, 384 kbps
Субтитры: нет

Релиз:


[+] MI
Общее
Уникальный идентификатор                 : 240255140673299118129982348180427249451 (0xB4BF74FC16B165FE9BEF8DED0E42172B)
Полное имя                               : E:Torrent2BegleciWEBDL1080p.mkv
Формат                                   : Matroska
Версия формата                           : Version 4 / Version 2
Размер файла                             : 3,27 Гбайт
Продолжительность                        : 1 ч. 23 м.
Общий поток                              : 5606 Кбит/сек
Дата кодирования                         : UTC 2019-08-02 18:16:58
Программа кодирования                    : mkvmerge v9.5.0 ('Quiet Fire') 64bit
Библиотека кодирования                   : libebml v1.3.4 + libmatroska v1.4.5

Видео
Идентификатор                            : 1
Формат                                   : AVC
Формат/Информация                        : Advanced Video Codec
Профиль формата                          : High@L4
Настройки формата                        : CABAC / 4 Ref Frames
Параметр CABAC формата                   : Да
Параметр RefFrames формата               : 4 кадра
Параметр GOP формата                     : N=1
Идентификатор кодека                     : V_MPEG4/ISO/AVC
Продолжительность                        : 1 ч. 23 м.
Битрейт                                  : 5220 Кбит/сек
Ширина                                   : 1918 пикселей
Высота                                   : 1040 пикселей
Соотношение сторон                       : 1,85:1
Режим частоты кадров                     : Постоянный
Частота кадров                           : 24,000 кадра/сек
Цветовое пространство                    : YUV
Субдискретизация насыщенности            : 4:2:0
Битовая глубина                          : 8 бит
Тип развёртки                            : Прогрессивная
Бит/(Пиксели*Кадры)                      : 0.109
Размер потока                            : 3,05 Гбайт (93%)
Язык                                     : English
Default                                  : Да
Forced                                   : Нет
Цветовой диапазон                        : Limited
Основные цвета                           : BT.709
Характеристики трансфера                 : BT.709
Коэффициенты матрицы                     : BT.709

Аудио
Идентификатор                            : 2
Формат                                   : AC-3
Формат/Информация                        : Audio Coding 3
Параметр Endianness формата              : Big
Идентификатор кодека                     : A_AC3
Продолжительность                        : 1 ч. 23 м.
Вид битрейта                             : Постоянный
Битрейт                                  : 384 Кбит/сек
Каналы                                   : 6 каналов
Расположение каналов                     : Front: L C R, Side: L R, LFE
Частота                                  : 48,0 КГц
Частота кадров                           : 31,250 кадров/сек (1536 SPF)
Битовая глубина                          : 16 бит
Метод сжатия                             : С потерями
Размер потока                            : 229 Мбайт (7%)
Язык                                     : Russian
Default                                  : Да
Forced                                   : Нет

Меню
00:00:00.000                             : en:Глава 1
00:07:05.916                             : en:Глава 2
00:11:05.332                             : en:Глава 3
00:18:20.415                             : en:Глава 4
00:26:07.540                             : en:Глава 5
00:34:08.456                             : en:Глава 6
00:39:49.331                             : en:Глава 7
00:46:10.372                             : en:Глава 8
00:51:27.413                             : en:Глава 9
00:58:04.621                             : en:Глава 10
01:08:17.912                             : en:Глава 11
01:15:23.287                             : en:Глава 12




Скриншоты:
[+] Всего файлов в раздаче - 1:
BegleciWEBDL1080p.mkv3.27 GB

Похожие раздачи по запросу - беглецы:
2019-08-05 U Беглецы (2017) WEB-DLRip от GeneralFilm | iTunes 1.37 GB ↑ 70 ↓ 20
2019-08-03 U Беглецы (2017) WEB-DLRip-AVC от ExKinoRay | iTunes 1.55 GB ↑ 107 ↓ 50
2019-08-03 U Беглецы (2017) WEB-DLRip | iTunes 1.46 GB ↑ 196 ↓ 72
2019-06-04 U Блейк Крауч - Беглецы. Неземное сияние (2019) MP3 498.49 MB ↑ 44 ↓ 7

Отзывы
Зарегистрируйтесь чтобы добавить комментарий.
Обратная связь
Copyleft ©