↑↓Torrent.by
Поиск
Логин: Регистрация
Пароль: Восстановить пароль
Загрузка...

Дикий Билл / Wild Bill [S01] (2019) WEB-DL 720p | HDRezka Studio

Скачать dikiy-bill-wild-s01-2019-web-dl-720p-hdrezka-studio.torrent
U Магнитная ссылка Размер: 8.65 GB Раздают: 84 Качают: 42 Добавлен: 2019-08-03 07:10:25
Дикий Билл / Wild Bill [S01] (2019) WEB-DL 720p | HDRezka Studio

Дикий Билл / Wild Bill

Страна: Великобритания
Производство: Shiver, Anonymous Content, 42
Год выпуска: 2019
Жанр:  драма, криминал, детектив
Продолжительность: 6х ~00:47:00

Режиссеры: Энни Гриффин, Джон Хардвик, Чарльз Мартин
В ролях: Роб Лоу, Бронвин Джеймс, Тони Питтс, Алориа Спенсер, Анжли Махиндра, Дивиан Ладва, Энтони Флэнеган, Рэйчел Стирлинг, Стеффан Родри

Описание: Шеф полиции США Билл Хиксон вынужден переехать в британский городок Линкольншир, со своей 14-летней дочерью Келси в надежде, что они смогут сбежать от болезненного прошлого...

Перевод: Профессиональный (многоголосый, закадровый) | HDRezka Studio
Субтитры: нет

Качество: WEB-DL 720p
Формат: MKV
Видео кодек: AVC
Аудио кодек: АС3 | E-AC3
Видео: 1280x720 (16:9), 25.000 fps, MPEG-4 AVC ~4 446 kbps avg
Аудио №1: 48.0 kHz, AC3 Dolby Digital, 2/0 (L,R) ch, ~192 kbps | RUS / MVO
Аудио №2: 48.0 kHz, Enhanced Audio Coding 3, 2/0 (L,R) ch, ~224 kbps | ENG

Дата премьеры (мир): 12 июня 2019


[+] Media Info
General
Unique ID : 215721280275929857616071879937887085217 (0xA24A6846F14706CB89455BAFBB7CA2A1)
Complete name : Wild.Bill.S01E01.720p.AMZN.WEB-DL.HDRezka.mkv
Format : Matroska
Format version : Version 4 / Version 2
File size : 1.62 GiB
Duration : 46 min 42 s
Overall bit rate mode : Constant
Overall bit rate : 4 961 kb/s
Encoded date : UTC 2019-08-02 06:38:12
Writing application : mkvmerge v6.1.0 ('Old Devil') built on Mar 2 2013 14:32:37
Writing library : libebml v1.3.0 + libmatroska v1.4.0

Video
ID : 1
Format : AVC
Format/Info : Advanced Video Codec
Format profile : High@L3.1
Format settings : CABAC / 4 Ref Frames
Format settings, CABAC : Yes
Format settings, ReFrames : 4 frames
Codec ID : V_MPEG4/ISO/AVC
Duration : 46 min 42 s
Bit rate mode : Constant
Bit rate : 4 446 kb/s
Nominal bit rate : 6 000 kb/s
Width : 1 280 pixels
Height : 720 pixels
Display aspect ratio : 16:9
Frame rate mode : Constant
Frame rate : 25.000 FPS
Color space : YUV
Chroma subsampling : 4:2:0
Bit depth : 8 bits
Scan type : Progressive
Bits/(Pixel*Frame) : 0.193
Stream size : 1.45 GiB (90%)
Language : English
Default : Yes
Forced : No
Color range : Limited
Color primaries : BT.709
Transfer characteristics : BT.709
Matrix coefficients : BT.709

Audio #1
ID : 2
Format : AC-3
Format/Info : Audio Coding 3
Codec ID : A_AC3
Duration : 46 min 42 s
Bit rate mode : Constant
Bit rate : 192 kb/s
Channel(s) : 2 channels
Channel positions : Front: L R
Sampling rate : 48.0 kHz
Frame rate : 31.250 FPS (1536 SPF)
Bit depth : 16 bits
Compression mode : Lossy
Stream size : 64.1 MiB (4%)
Language : Russian
Service kind : Complete Main
Default : Yes
Forced : No

Audio #2
ID : 3
Format : E-AC-3
Format/Info : Enhanced Audio Coding 3
Codec ID : A_EAC3
Duration : 46 min 42 s
Bit rate mode : Constant
Bit rate : 224 kb/s
Channel(s) : 2 channels
Channel positions : Front: L R
Sampling rate : 48.0 kHz
Frame rate : 187.500 FPS (256 SPF)
Compression mode : Lossy
Stream size : 74.8 MiB (5%)
Language : English
Service kind : Complete Main
Default : No
Forced : No



Скриншоты:
[+] Всего файлов в раздаче - 6:
Wild.Bill.S01E05.720p.AMZN.WEB-DL.HDRezka.mkv1.78 GB
Wild.Bill.S01E01.720p.AMZN.WEB-DL.HDRezka.mkv1.62 GB
Wild.Bill.S01E06.720p.AMZN.WEB-DL.HDRezka.mkv1.40 GB
Wild.Bill.S01E04.720p.AMZN.WEB-DL.HDRezka.mkv1.36 GB
Wild.Bill.S01E02.720p.AMZN.WEB-DL.HDRezka.mkv1.29 GB
Wild.Bill.S01E03.720p.AMZN.WEB-DL.HDRezka.mkv1.21 GB

Показать еще раздачи по запросу дикий:
2019-08-03 U Дикий Билл / Wild Bill [S01] (2019) WEB-DL 1080p | HDRezka Studio 19.99 GB ↑ 37 ↓ 13
2019-07-26 U Дикий пляж / Savage Beach (1989) HDRip-AVC от ExKinoRay | A 745.28 MB ↑ 69 ↓ 11
2019-01-20 U Дикий / Braven (2018) BDRip 720p от k.e.n & MegaPeer | D, P, A 4.30 GB ↑ 124 ↓ 299
2018-11-28 U Животные инстинкты / Животный инстинкт / Дикий инстинкт / Animal Instincts (1992) DVDRip | A 1.37 GB ↑ 56 ↓ 17
2018-11-26 U Животные инстинкты 2 / Дикий инстинкт 2 / Animal Instincts II (1994) DVDRip | P2, A | Uncut Version 1.33 GB ↑ 258 ↓ 23
2018-06-08 U Григорий Шаргородский - Дикий легион (2018) MP3 428.97 MB ↑ 511 ↓ 102
2015-11-11 U Животные инстинкты / Дикий инстинкт / Animal Instincts (1992) DVDRip | P2 1К1.37 GB ↑ 1159 ↓ 71

Отзывы
Зарегистрируйтесь чтобы добавить комментарий.
Обратная связь
Copyleft ©