↑↓Torrent.by
Поиск
Логин: Регистрация
Пароль: Восстановить пароль
Загрузка...

Тот, кто не спит [S01-S02] (2017) WEB-DLRip от Files-x

Скачать tot-kto-ne-spit-s01-s02-2017-web-dlrip-ot-files-x.torrent
U Магнитная ссылка Размер: 17.80 GB Раздают: 35 Качают: 43 Добавлен: 2019-08-03 07:11:22
Тот, кто не спит [S01-S02] (2017) WEB-DLRip от Files-x

Оригинальное название: Тот, кто не спит
Год выхода: 2017
Жанр: Детектив, криминаль, мистика, научная фантастика
Режиссер: Евгений Баранов (II), Валерий Рожко
В ролях: Кирилл Дыцевич, Олеся Фаттахова, Александр Яцко, Олег Савкин, Ирина Мельник, Фёдор Гуринец, Юлия Гершаник, Анастасия Иванова (II), Лада Брик, Павел Москаль, Владимир Ращук, Дмитрий Вивчарюк, Вячеслав Василюк, Иван Соловьёв (III), Олеся Гаевая, Анастасия Рула, Светлана Рубан, Назар Заднепровский, Александр Гетманский, Дмитрий Усов, Константин Октябрьский, Дайнюс Казлаускас, Сергей Фролов (II), Юлия Шугар, Светлана Прус, Михаил Хмуров, Сергей Асовский, Дмитрий Палеев-Барманский, Ли Берлинская, Игорь Шкурин, Елена Голубь, Сергей Детюк, Вячеслав Соломка, Андрей Соколовский, Анастасия Филиппова, Сергей Малюга, Тарас Цимбалюк, Станислав Москвин, Виктория Варлей, Дмитрий Чернов (II), Владлен Портников, Юрий Кухаренко, Ирина Мордусенко, Сергей Пономаренко (III), Владислав Канопка, Игорь Писный, Андрей Валенский, Павел Мащенко, Мария Хомутова, Анастасия Цымбалару, Феликс Аброскин, Владимир Гончаров (III), Вячеслав Рак, Леонид Громов, Юрий Козачище, Виктор Бабак, Екатерина Гайворонская, Геннадий Василенко, Сергей Воляновский, Сталина Лагошняк, Владимир Литвинов, Виктор Шестаков, Сергей Бондарчук (II), Михаил Аугуст, Ярослав Гуревич, Николай Бутковский, Анна Сырбу, Дарья Трегубова, Елизавета Майская, Никита Пархоменко

О фильме:
Тихий украинский городок всколыхнуло неожиданное событие, неизвестный заминировал местный супермаркет. Начальник местной полиции не знает что предпринять, пока не появляется опытный детектив Артур Яровенко (роль исполнит Олег Савкин) и именно он знает что делать. Именно он руководит необычным детективным агентством. Это непростое агентство оно не занимается бытовыми неурядицами, в его ведении сложнейшие дела, которые по сути напрямую влияют на жизнь цивилизации.

Страна: Россия, Украина
Студия: Продакшн-студия Accel Time Production
Продолжительность: 32 х 00:45:00
Перевод: Не требуется

Файл
Кодек: XviD
Качество: WEB-DLRip
Видео: XviD, ~ 1697 Кбит/с, 720x400
Звук: AC3, 2 ch, 192 Кбит/с

Релиз:


[+] Содержание 2 сезон

Когда детективным агентством руководит умный аналитик и прекрасный стратег, это обещает увлекательные и закрученные сюжеты, где каждое расследование превращается в решение некой сложной головоломки непременно с успешным финалом, но если этот человек сам оказывается "темной лошадкой", неизвестно когда и откуда появившейся - развитие истории может стать весьма неожиданным...Именно таким аналитиком, стратегом и "темной лошадкой" можно считать Артура Яровенко, чья личная жизненная история - тайна, покрытая мраком...Никто не знает, сколько лет, столетий или даже тысячелетий существует он на Земле...



[+] MediaInfo

General
Complete name                    : C:11.Тот, кто не спит.s01.E11.(2017).WEB-DLRip.by.Nicodem.Files-x.avi
Format                           : AVI
Format/Info                      : Audio Video Interleave
File size                        : 569 MiB
Duration                         : 41mn 51s
Overall bit rate                 : 1 899 Kbps
Writing application              : VirtualDubMod 1.5.10.3 | www.virtualdub-fr.org || (build 2550/release)
Writing library                  : VirtualDubMod build 2550/release

Video
ID                               : 0
Format                           : MPEG-4 Visual
Format profile                   : Advanced Simple@L5
Format settings, BVOP            : 1
Format settings, QPel            : No
Format settings, GMC             : No warppoints
Format settings, Matrix          : Custom
Codec ID                         : XVID
Codec ID/Hint                    : XviD
Duration                         : 41mn 51s
Bit rate                         : 1 697 Kbps
Width                            : 720 pixels
Height                           : 400 pixels
Display aspect ratio             : 16:9
Frame rate                       : 25.000 fps
Color space                      : YUV
Chroma subsampling               : 4:2:0
Bit depth                        : 8 bits
Scan type                        : Progressive
Compression mode                 : Lossy
Bits/(Pixel*Frame)               : 0.236
Stream size                      : 508 MiB (89%)
Writing library                  : XviD 73

Audio
ID                               : 1
Format                           : AC-3
Format/Info                      : Audio Coding 3
Mode extension                   : CM (complete main)
Codec ID                         : 2000
Duration                         : 41mn 51s
Bit rate mode                    : Constant
Bit rate                         : 192 Kbps
Channel(s)                       : 2 channels
Channel positions                : Front: L R
Sampling rate                    : 48.0 KHz
Bit depth                        : 16 bits
Compression mode                 : Lossy
Stream size                      : 57.5 MiB (10%)
Alignment                        : Split accross interleaves
Interleave, duration             : 40 ms (1.00 video frame)
Interleave, preload duration     : 500 ms



Скриншоты:
[+] Всего файлов в раздаче - 32:
11.Тот, кто не спит.s01.E11.(2017).WEB-DLRip.by.Nicodem.Files-x.avi568.52 MB
21.Тот, кто не спит.s02.E05.(2017).WEB-DLRip.by.Nicodem.Files-x.avi568.56 MB
01.Тот, кто не спит.s01.E01.(2017).WEB-DLRip.by.Nicodem.Files-x.avi568.75 MB
27.Тот, кто не спит.s02.E11.(2017).WEB-DLRip.by.Nicodem.Files-x.avi568.84 MB
30.Тот, кто не спит.s02.E14.(2017).WEB-DLRip.by.Nicodem.Files-x.avi568.96 MB
31.Тот, кто не спит.s02.E15.(2017).WEB-DLRip.by.Nicodem.Files-x.avi568.97 MB
22.Тот, кто не спит.s02.E06.(2017).WEB-DLRip.by.Nicodem.Files-x.avi569.02 MB
18.Тот, кто не спит.s02.E02.(2017).WEB-DLRip.by.Nicodem.Files-x.avi569.03 MB
28.Тот, кто не спит.s02.E12.(2017).WEB-DLRip.by.Nicodem.Files-x.avi569.13 MB
15.Тот, кто не спит.s01.E15.(2017).WEB-DLRip.by.Nicodem.Files-x.avi569.15 MB
29.Тот, кто не спит.s02.E13.(2017).WEB-DLRip.by.Nicodem.Files-x.avi569.18 MB
14.Тот, кто не спит.s01.E14.(2017).WEB-DLRip.by.Nicodem.Files-x.avi569.20 MB
32.Тот, кто не спит.s02.E16.(2017).WEB-DLRip.by.Nicodem.Files-x.avi569.26 MB
20.Тот, кто не спит.s02.E04.(2017).WEB-DLRip.by.Nicodem.Files-x.avi569.43 MB
08.Тот, кто не спит.s01.E08.(2017).WEB-DLRip.by.Nicodem.Files-x.avi569.47 MB
04.Тот, кто не спит.s01.E04.(2017).WEB-DLRip.by.Nicodem.Files-x.avi569.63 MB
13.Тот, кто не спит.s01.E13.(2017).WEB-DLRip.by.Nicodem.Files-x.avi569.66 MB
07.Тот, кто не спит.s01.E07.(2017).WEB-DLRip.by.Nicodem.Files-x.avi569.78 MB
02.Тот, кто не спит.s01.E02.(2017).WEB-DLRip.by.Nicodem.Files-x.avi569.84 MB
03.Тот, кто не спит.s01.E03.(2017).WEB-DLRip.by.Nicodem.Files-x.avi569.93 MB
26.Тот, кто не спит.s02.E10.(2017).WEB-DLRip.by.Nicodem.Files-x.avi570.01 MB
09.Тот, кто не спит.s01.E09.(2017).WEB-DLRip.by.Nicodem.Files-x.avi570.08 MB
23.Тот, кто не спит.s02.E07.(2017).WEB-DLRip.by.Nicodem.Files-x.avi570.13 MB
05.Тот, кто не спит.s01.E05.(2017).WEB-DLRip.by.Nicodem.Files-x.avi570.13 MB
10.Тот, кто не спит.s01.E10.(2017).WEB-DLRip.by.Nicodem.Files-x.avi570.19 MB
12.Тот, кто не спит.s01.E12.(2017).WEB-DLRip.by.Nicodem.Files-x.avi570.20 MB
25.Тот, кто не спит.s02.E09.(2017).WEB-DLRip.by.Nicodem.Files-x.avi570.23 MB
24.Тот, кто не спит.s02.E08.(2017).WEB-DLRip.by.Nicodem.Files-x.avi570.24 MB
16.Тот, кто не спит.s01.E16.(2017).WEB-DLRip.by.Nicodem.Files-x.avi570.29 MB
17.Тот, кто не спит.s02.E01.(2017).WEB-DLRip.by.Nicodem.Files-x.avi570.37 MB
06.Тот, кто не спит.s01.E06.(2017).WEB-DLRip.by.Nicodem.Files-x.avi570.44 MB
19.Тот, кто не спит.s02.E03.(2017).WEB-DLRip.by.Nicodem.Files-x.avi570.46 MB

Отзывы
Зарегистрируйтесь чтобы добавить комментарий.
Обратная связь
Copyleft ©