↑↓Torrent.by
Поиск
Логин: Регистрация
Пароль: Восстановить пароль
Загрузка...

Петербург. Любовь. До востребования [01-04 из 04] (2019) HDTVRip 720p от GeneralFilm

Скачать peterburg-lyubov-do-vostrebovaniya-01-04-iz-2019-hdtvrip-720p-ot-generalfilm.torrent
U Магнитная ссылка Размер: 5.27 GB Раздают: 45 Качают: 8 Добавлен: 2019-08-03 07:11:28
Петербург. Любовь. До востребования [01-04 из 04] (2019) HDTVRip 720p от GeneralFilm

Год выпуска: 2019
Жанр:  Мелодрама
Выпущено: Россия, Студия АСДС
Режиссер: Дмитрий Светозаров
В ролях: Юлия Пересильд, Сергей Перегудов, Александр Устюгов, Юрий Кузнецов, Эра Зиганшина, Рудольф Фурманов, Наталья Бурмистрова (II), Сергей Мардарь, Лариса Леонова, Татьяна Тузова, Егор Бакулин, Татьяна Полонская

О фильме: Молодая учительница из глубинки Светлана, приехав на семинар в Петербург, знакомится с геологом-нефтяником Федором, который влюбляется в наивную провинциалку. Он бросает экспедицию, делает девушке предложение и устраивает их уютное семейное гнездышко. Казалось бы, жизнь могла бы стать сплошным «днем счастья», но роскошный особняк со временем превращается для Светланы в золотую клетку. Однажды прогуливаясь по Петербургу, она знакомится с интеллигентным врачом скорой помощи, Березкиным. Влюблённый в свой родной город и увлекающийся историей, он превращает их совместные путешествия по Питеру в увлекательные экскурсии. Постепенно между молодыми людьми вспыхивает искреннее чувство.

Качество: HDTVRip (720p)
Видео: MPEG-4 AVC, ~ 3500 Кбит/с, 1280x720, 25 fps
Аудио: Русский (AC3, 2 ch, 192 Кбит/с)
Продолжительность: 4 х ~ 00:50:00
Перевод: Не требуется
Субтитры: нет

Релиз:


[+] MediaInfo

Общее
Уникальный идентификатор                 : 223372704434106133530237877394923959171 (0xA80C049D251650048CCF034628B1B383)
Полное имя                               : D:Peterburg. Ljubov. Do vostrebovanija.HDTVRip.(720p).GeneralFilm1.Peterburg. Ljubov. Do vostrebovanija.HDTVRip.(720p).GeneralFilm.mkv
Формат                                   : Matroska
Версия формата                           : Version 2
Размер файла                             : 1,32 Гбайт
Продолжительность                        : 51 м. 12 с.
Общий поток                              : 3694 Кбит/сек
Дата кодирования                         : UTC 2019-08-01 05:45:49
Программа кодирования                    : mkvmerge v7.8.0 ('River Man') 32bit built on Apr  3 2015 12:11:22
Библиотека кодирования                   : libebml v1.3.1 + libmatroska v1.4.2

Видео
Идентификатор                            : 1
Формат                                   : AVC
Формат/Информация                        : Advanced Video Codec
Профиль формата                          : High@L4.1
Параметр CABAC формата                   : Да
Параметр ReFrames формата                : 9 кадров
Идентификатор кодека                     : V_MPEG4/ISO/AVC
Продолжительность                        : 51 м. 12 с.
Битрейт                                  : 3500 Кбит/сек
Ширина                                   : 1280 пикселей
Высота                                   : 720 пикселей
Соотношение сторон                       : 16:9
Режим частоты кадров                     : Постоянный
Частота кадров                           : 25,000 кадров/сек
Цветовое пространство                    : YUV
Субдискретизация насыщенности            : 4:2:0
Битовая глубина                          : 8 бит
Тип развёртки                            : Прогрессивная
Бит/(Пиксели*Кадры)                      : 0.152
Размер потока                            : 1,23 Гбайт (93%)
Библиотека кодирования                   : x264 core 146 r2538 121396c
Настройки программы                      : cabac=1 / ref=9 / deblock=1:-2:-1 / analyse=0x3:0x113 / me=umh / subme=9 / psy=1 / psy_rd=1.00:0.15 / mixed_ref=1 / me_range=32 / chroma_me=1 / trellis=2 / 8x8dct=1 / cqm=0 / deadzone=21,11 / fast_pskip=0 / chroma_qp_offset=-3 / threads=18 / lookahead_threads=3 / sliced_threads=0 / nr=0 / decimate=1 / interlaced=0 / bluray_compat=0 / constrained_intra=0 / bframes=9 / b_pyramid=2 / b_adapt=2 / b_bias=0 / direct=1 / weightb=1 / open_gop=0 / weightp=2 / keyint=250 / keyint_min=25 / scenecut=40 / intra_refresh=0 / rc_lookahead=40 / rc=2pass / mbtree=0 / bitrate=3500 / ratetol=1.0 / qcomp=0.60 / qpmin=0 / qpmax=69 / qpstep=4 / cplxblur=20.0 / qblur=0.5 / vbv_maxrate=14000 / vbv_bufsize=14000 / nal_hrd=none / filler=0 / ip_ratio=1.40 / pb_ratio=1.30 / aq=2:1.00
Default                                  : Да
Forced                                   : Нет
Цветовой диапазон                        : Limited
Основные цвета                           : BT.709
Характеристики трансфера                 : BT.709
Коэффициенты матрицы                     : BT.709

Аудио
Идентификатор                            : 2
Формат                                   : AC-3
Формат/Информация                        : Audio Coding 3
Расширение режима                        : CM (complete main)
Параметр Endianness формата              : Big
Идентификатор кодека                     : A_AC3
Продолжительность                        : 51 м. 12 с.
Вид битрейта                             : Постоянный
Битрейт                                  : 192 Кбит/сек
Каналы                                   : 2 канала
Расположение каналов                     : Front: L R
Частота                                  : 48,0 КГц
Частота кадров                           : 31,250 кадров/сек (1536 spf)
Битовая глубина                          : 16 бит
Метод сжатия                             : С потерями
Размер потока                            : 70,3 Мбайт (5%)
Default                                  : Да
Forced                                   : Нет




Скриншоты:
[+] Всего файлов в раздаче - 4:
01.Peterburg. Ljubov. Do vostrebovanija.HDTVRip.(720p).GeneralFilm.mkv1.32 GB
02.Peterburg. Ljubov. Do vostrebovanija.HDTVRip.(720p).GeneralFilm.mkv1.32 GB
03.Peterburg. Ljubov. Do vostrebovanija.HDTVRip.(720p).GeneralFilm.mkv1.32 GB
04.Peterburg. Ljubov. Do vostrebovanija.HDTVRip.(720p).GeneralFilm.mkv1.32 GB

Показать еще раздачи по запросу петербург:
2019-08-02 U Петербург. Любовь. До востребования [01-04 из 04] (2019) HDTVRip-AVC от Files-x 3.13 GB ↑ 63 ↓ 37
2019-08-02 U Петербург. Любовь. До востребования [01-04 из 04] (2019) HDTVRip от GeneralFilm 2.54 GB ↑ 74 ↓ 66
2019-08-01 U Петербург. Любовь. До востребования [01-02 из 04] (2019) HDTVRip от GeneralFilm 1.28 GB ↑ 54 ↓ 31
2019-08-01 U Петербург. Любовь. До востребования [01-02 из 04] (2019) HDTVRip-AVC от Files-x 1.57 GB ↑ 76 ↓ 25
2019-08-01 U Петербург. Любовь. До востребования [01х01-04 из 04] (2019) SATRip-AVC 2.46 GB ↑ 4 ↓ 1
2019-01-27 U Санкт-Петербург / Saint Petersburg (2018) WEBRip 1440p 428.97 MB ↑ 109 ↓ 11
2019-01-19 U Санкт-Петербург / Saint Petersburg (2018) WEBRip 2160p 788.45 MB ↑ 235 ↓ 44

Отзывы
Зарегистрируйтесь чтобы добавить комментарий.
Обратная связь
Copyleft ©