↑↓Torrent.by
Поиск
Логин: Регистрация
Пароль: Восстановить пароль
Загрузка...

Беглецы (2017) WEB-DLRip-AVC от ExKinoRay | iTunes

Скачать beglecy-2017-web-dlrip-avc-ot-exkinoray-itunes.torrent
U Магнитная ссылка Размер: 1.55 GB Раздают: 107 Качают: 50 Добавлен: 2019-08-03 11:43:47
Беглецы (2017) WEB-DLRip-AVC от ExKinoRay | iTunes

Название: Беглецы
Год выхода: 2017
Жанр: Комедия
Страна: Россия, Латвия
Перевод: Не требуется
Продолжительность: 01:23:32
Режиссер: Ара Оганесян
В ролях: Евгений Ткачук, Равшана Куркова, Константин Крюков, Максим Виторган, Алексей Маклаков, Анастасия Калманович, Олег Верещагин и др.

О фильме: Молодой кумир поп-сцены Алекс, достигнув пика славы, растрачивает былой талант и гонорары на выпивку и женщин. Вместе с приличной репутацией он стремительно теряет и благосклонность своего продюсера Кати. После недолгих циничных подсчетов Катя принимает решение, что от мертвого Алекса выйдет больше прибыли, чем от живого. Она заказывает его профессионалам...

Формат: MKV
Качество: WEB-DLRip-AVC
Видео: MPEG-4 AVC, 1024x554 (1.85:1), 24.000 fps, 2280 Kbps, 0.167 bit/pixel
Аудио : 48 kHz, AC3, 5.1, 384 Kbps | iTunes |

Релиз:

Автор релиза:


[+] ОтчетМедиаИнфо

General
Unique ID                                : 231048916508924829451253014071537604823 (0xADD26716D74DC9F9AC8781416E7898D7)
Complete name                            : D:Begleci.2017.AVC.ExKinoRay.mkv
Format                                   : Matroska
Format version                           : Version 2
File size                                : 1.55 GiB
Duration                                 : 1 h 23 min
Overall bit rate                         : 2 665 kb/s
Movie name                               : Беглецы 2017 from ExKinoRay
Encoded date                             : UTC 2019-08-03 02:18:18
Writing application                      : mkvmerge v5.6.0 ('Kenya Kane') built on May 27 2012 16:44:04
Writing library                          : libebml v1.2.3 + libmatroska v1.3.0

Video
ID                                       : 1
Format                                   : AVC
Format/Info                              : Advanced Video Codec
Format profile                           : High@L4.1
Format settings, CABAC                   : Yes
Format settings, ReFrames                : 11 frames
Codec ID                                 : V_MPEG4/ISO/AVC
Duration                                 : 1 h 23 min
Bit rate                                 : 2 280 kb/s
Width                                    : 1 024 pixels
Height                                   : 554 pixels
Display aspect ratio                     : 1.85:1
Frame rate mode                          : Constant
Frame rate                               : 24.000 FPS
Color space                              : YUV
Chroma subsampling                       : 4:2:0
Bit depth                                : 8 bits
Scan type                                : Progressive
Bits/(Pixel*Frame)                       : 0.167
Stream size                              : 1.30 GiB (84%)
Title                                    : Enigma
Writing library                          : x264 core 152 r2851 ba24899
Encoding settings                        : cabac=1 / ref=11 / deblock=1:-2:-2 / analyse=0x3:0x113 / me=umh / subme=10 / psy=1 / psy_rd=1.05:0.15 / mixed_ref=1 / me_range=32 / chroma_me=1 / trellis=2 / 8x8dct=1 / cqm=0 / deadzone=21,11 / fast_pskip=0 / chroma_qp_offset=-3 / threads=12 / lookahead_threads=3 / sliced_threads=0 / nr=0 / decimate=0 / interlaced=0 / bluray_compat=0 / constrained_intra=0 / bframes=10 / b_pyramid=2 / b_adapt=2 / b_bias=0 / direct=3 / weightb=1 / open_gop=0 / weightp=2 / keyint=240 / keyint_min=24 / scenecut=40 / intra_refresh=0 / rc=2pass / mbtree=0 / bitrate=2280 / ratetol=1.0 / qcomp=0.65 / qpmin=0 / qpmax=51 / qpstep=4 / cplxblur=20.0 / qblur=0.5 / ip_ratio=1.30 / pb_ratio=1.20 / aq=1:1.00
Language                                 : English
Default                                  : Yes
Forced                                   : No
Color range                              : Limited
Color primaries                          : BT.709
Transfer characteristics                 : BT.709
Matrix coefficients                      : BT.709

Audio
ID                                       : 2
Format                                   : AC-3
Format/Info                              : Audio Coding 3
Mode extension                           : CM (complete main)
Format settings, Endianness              : Big
Codec ID                                 : A_AC3
Duration                                 : 1 h 23 min
Bit rate mode                            : Constant
Bit rate                                 : 384 kb/s
Channel(s)                               : 6 channels
Channel positions                        : Front: L C R, Side: L R, LFE
Sampling rate                            : 48.0 kHz
Frame rate                               : 31.250 FPS (1536 spf)
Compression mode                         : Lossy
Stream size                              : 229 MiB (14%)
Language                                 : Russian
Default                                  : Yes
Forced                                   : No

Menu
00:00:00.000                             : en:Глава 1
00:07:05.916                             : en:Глава 2
00:11:05.332                             : en:Глава 3
00:18:20.415                             : en:Глава 4
00:26:07.540                             : en:Глава 5
00:34:08.456                             : en:Глава 6
00:39:49.331                             : en:Глава 7
00:46:10.372                             : en:Глава 8
00:51:27.413                             : en:Глава 9
00:58:04.621                             : en:Глава 10
01:08:17.912                             : en:Глава 11
01:15:23.287                             : en:Глава 12




Скриншоты:
[+] Всего файлов в раздаче - 1:
Begleci.2017.AVC.ExKinoRay.mkv1.55 GB

Похожие раздачи по запросу - беглецы:
2019-08-05 U Беглецы (2017) WEB-DLRip от GeneralFilm | iTunes 1.37 GB ↑ 70 ↓ 20
2019-08-03 U Беглецы (2017) WEB-DL 1080p | iTunes 3.27 GB ↑ 137 ↓ 66
2019-08-03 U Беглецы (2017) WEB-DLRip | iTunes 1.46 GB ↑ 196 ↓ 72
2019-06-04 U Блейк Крауч - Беглецы. Неземное сияние (2019) MP3 498.49 MB ↑ 44 ↓ 7

Отзывы
Зарегистрируйтесь чтобы добавить комментарий.
Обратная связь
Copyleft ©