↑↓Torrent.by
Поиск
Логин: Регистрация
Пароль: Восстановить пароль
Загрузка...

Борьба с моей семьей / Fighting with My Family (2019) BDRip 1080p от селезень | Лицензия

Скачать borba-s-moey-semey-fighting-with-my-family-2019-bdrip-1080p-ot-selezen-licenziya.torrent
U Магнитная ссылка Размер: 8.99 GB Раздают: 439 Качают: 104 Добавлен: 2019-08-04 07:18:00
Борьба с моей семьей / Fighting with My Family (2019) BDRip 1080p от селезень | Лицензия

Название: Борьба с моей семьей
Оригинальное название: Fighting with My Family
Год выхода: 2019
Жанр: Драма, комедия, биография, спорт
Режиссер: Стивен Мерчант
В ролях: Винс Вон, Дуэйн Джонсон, Томас Уилли, Тори Эллен Росс, Ник Фрост, Лина Хиди, Флоренс Пью, Джек Лауден, Оливия Бернстоун, Леа Фергюсон, Мохаммад Али Амири

О фильме: В центре сюжета семья Бевис: бывший рестлер Патрик, его жена Джулия и их дети Зак и Сарайя. Они устраивают живые выступления на маленьких площадках, разъезжая по стране. Зак и Сарайя мечтают стать известными и попасть в международную ассоциацию рестлинга.

Страна: Великобритания, США
Студия: Metro-Goldwyn-Mayer (MGM), Channel 4 Television Corporation, Film4
Продолжительность: 01:48:28
Перевод: Дублированный | Лицензия

Качество: BDRip 1080p
Видео: MPEG-4 AVC, 1920x804, 10.0 Mbit/s, 23.976 fps
Звук:
Аудио #01: 48 kHz, DTS, 5.1, 768 Kbps | Лицензия | RUS |
Аудио #02: 48 kHz, AC3, 5.1, 448 Kbps | Лицензия | RUS |
Аудио #03: 48 kHz, AC3, 5.1, 640 Kbps | Оригинал |  ENG |
Субтитры: Русские (Forced, full), английские

Релиз:


[+] MI
General
Unique ID                   : 29670376691610219958354012153264342228 (0x16524E83716D3768EF463C69369604D4)
Complete name               : D:Video111Fighting.with.My.Family.2019.BDRip.1080p.seleZen.mkv
Format                      : Matroska
Format version              : Version 4
File size                   : 8.99 GiB
Duration                    : 1 h 48 min
Overall bit rate            : 11.9 Mb/s
Movie name                  : Fighting with My Family 2019 from селезень
Encoded date                : UTC 2019-08-03 11:45:03
Writing application         : mkvmerge v22.0.0 ('At The End Of The World') 64-bit
Writing library             : libebml v1.3.5 + libmatroska v1.4.8

Video
ID                          : 1
Format                      : AVC
Format/Info                 : Advanced Video Codec
Format profile              : High@L4.1
Format settings             : CABAC / 5 Ref Frames
Format settings, CABAC      : Yes
Format settings, Reference  : 5 frames
Codec ID                    : V_MPEG4/ISO/AVC
Duration                    : 1 h 48 min
Bit rate                    : 10 000 kb/s
Width                       : 1 920 pixels
Height                      : 804 pixels
Display aspect ratio        : 2.40:1
Frame rate mode             : Constant
Frame rate                  : 23.976 (24000/1001) FPS
Color space                 : YUV
Chroma subsampling          : 4:2:0
Bit depth                   : 8 bits
Scan type                   : Progressive
Bits/(Pixel*Frame)          : 0.270
Stream size                 : 7.58 GiB (84%)
Title                       : seleZen
Writing library             : x264 core 148 r2705kMod 3f5ed56
Encoding settings           : cabac=1 / ref=5 / deblock=1:-2:-2 / analyse=0x3:0x133 / me=umh / subme=10 / psy=1 / fade_compensate=0.00 / psy_rd=1.20:0.04 / mixed_ref=1 / me_range=24 / chroma_me=1 / trellis=2 / 8x8dct=1 / cqm=0 / deadzone=21,11 / fast_pskip=0 / chroma_qp_offset=-3 / threads=12 / lookahead_threads=2 / sliced_threads=0 / nr=0 / decimate=0 / interlaced=0 / bluray_compat=0 / constrained_intra=0 / fgo=0 / bframes=8 / b_pyramid=2 / b_adapt=2 / b_bias=0 / direct=3 / weightb=1 / open_gop=0 / weightp=2 / keyint=240 / keyint_min=23 / scenecut=40 / intra_refresh=0 / rc_lookahead=50 / rc=2pass / mbtree=0 / bitrate=10000 / ratetol=1.0 / qcomp=0.60 / qpmin=0 / qpmax=51 / qpstep=4 / cplxblur=20.0 / qblur=0.5 / vbv_maxrate=50000 / vbv_bufsize=62500 / nal_hrd=none / filler=0 / ip_ratio=1.40 / pb_ratio=1.30 / aq=3:0.80
Language                    : English
Default                     : Yes
Forced                      : No

Audio #1
ID                          : 2
Format                      : DTS
Format/Info                 : Digital Theater Systems
Codec ID                    : A_DTS
Duration                    : 1 h 48 min
Bit rate mode               : Constant
Bit rate                    : 768 kb/s
Channel(s)                  : 6 channels
Channel layout              : C L R Ls Rs LFE
Sampling rate               : 48.0 kHz
Frame rate                  : 93.750 FPS (512 SPF)
Bit depth                   : 24 bits
Compression mode            : Lossy
Stream size                 : 596 MiB (6%)
Title                       : Dub [License]
Language                    : Russian
Default                     : Yes
Forced                      : Yes

Audio #2
ID                          : 3
Format                      : AC-3
Format/Info                 : Audio Coding 3
Commercial name             : Dolby Digital
Codec ID                    : A_AC3
Duration                    : 1 h 48 min
Bit rate mode               : Constant
Bit rate                    : 448 kb/s
Channel(s)                  : 6 channels
Channel layout              : L R C LFE Ls Rs
Sampling rate               : 48.0 kHz
Frame rate                  : 31.250 FPS (1536 SPF)
Bit depth                   : 16 bits
Compression mode            : Lossy
Stream size                 : 348 MiB (4%)
Title                       : Dub [License]
Language                    : Russian
Service kind                : Complete Main
Default                     : No
Forced                      : No

Audio #3
ID                          : 4
Format                      : AC-3
Format/Info                 : Audio Coding 3
Commercial name             : Dolby Digital
Codec ID                    : A_AC3
Duration                    : 1 h 48 min
Bit rate mode               : Constant
Bit rate                    : 640 kb/s
Channel(s)                  : 6 channels
Channel layout              : L R C LFE Ls Rs
Sampling rate               : 48.0 kHz
Frame rate                  : 31.250 FPS (1536 SPF)
Bit depth                   : 16 bits
Compression mode            : Lossy
Stream size                 : 497 MiB (5%)
Title                       : Original
Language                    : English
Service kind                : Complete Main
Default                     : No
Forced                      : No

Text #1
ID                          : 5
Format                      : UTF-8
Codec ID                    : S_TEXT/UTF8
Codec ID/Info               : UTF-8 Plain Text
Duration                    : 1 h 47 min
Bit rate                    : 1 b/s
Count of elements           : 44
Stream size                 : 1.54 KiB (0%)
Title                       : Forced
Language                    : Russian
Default                     : Yes
Forced                      : Yes

Text #2
ID                          : 6
Format                      : UTF-8
Codec ID                    : S_TEXT/UTF8
Codec ID/Info               : UTF-8 Plain Text
Duration                    : 1 h 47 min
Bit rate                    : 95 b/s
Count of elements           : 1806
Stream size                 : 75.1 KiB (0%)
Title                       : Full
Language                    : Russian
Default                     : No
Forced                      : No

Text #3
ID                          : 7
Format                      : UTF-8
Codec ID                    : S_TEXT/UTF8
Codec ID/Info               : UTF-8 Plain Text
Duration                    : 1 h 44 min
Bit rate                    : 85 b/s
Count of elements           : 2122
Stream size                 : 65.5 KiB (0%)
Title                       : Full
Language                    : English
Default                     : No
Forced                      : No

Menu
00:00:00.000                : en:00:00:00.000
00:05:10.268                : en:00:05:10.268
00:09:46.252                : en:00:09:46.252
00:14:29.035                : en:00:14:29.035
00:20:55.045                : en:00:20:55.045
00:24:53.867                : en:00:24:53.867
00:29:08.372                : en:00:29:08.372
00:35:17.073                : en:00:35:17.073
00:40:51.032                : en:00:40:51.032
00:46:05.763                : en:00:46:05.763
00:50:54.718                : en:00:50:54.718
00:55:47.928                : en:00:55:47.928
01:00:41.137                : en:01:00:41.137
01:04:12.807                : en:01:04:12.807
01:11:48.513                : en:01:11:48.513
01:17:01.158                : en:01:17:01.158
01:22:00.457                : en:01:22:00.457
01:27:31.121                : en:01:27:31.121
01:35:01.404                : en:01:35:01.404
01:44:04.738                : en:01:44:04.738



Скриншоты:
[+] Всего файлов в раздаче - 1:
Fighting.with.My.Family.2019.BDRip.1080p.seleZen.mkv8.99 GB

Показать еще раздачи по запросу борьба:
2019-08-12 U Борьба с моей семьей / Fighting with My Family (2019) BDRip от MegaPeer | Лицензия 2.18 GB ↑ 40 ↓ 28
2019-08-05 U Борьба с моей семьей / Fighting with My Family (2019) BDRip от Twister & ExKinoRay | Лицензия 1.46 GB ↑ 55 ↓ 24
2019-08-05 U Борьба с моей семьей / Fighting with My Family (2019) HDRip от Portablius | Лицензия 745.66 MB ↑ 99 ↓ 10
2019-08-04 U Борьба с моей семьей / Fighting with My Family (2019) BDRip 720p от селезень | Лицензия 5.20 GB ↑ 218 ↓ 117
2019-08-04 U Борьба с моей семьей / Fighting with My Family (2019) BDRip-AVC от New-Team | D 1.48 GB ↑ 119 ↓ 17
2019-08-04 U Борьба с моей семьей / Fighting with My Family (2019) BDRip-AVC от New-Team | D 2.17 GB ↑ 70 ↓ 15
2019-08-03 U Борьба с моей семьей / Fighting with My Family (2019) BDRemux 1080p от селезень | Лицензия 26.45 GB ↑ 237 ↓ 192

Отзывы
Зарегистрируйтесь чтобы добавить комментарий.
Обратная связь
Copyleft ©