↑↓Torrent.by
Поиск
Логин: Регистрация
Пароль: Восстановить пароль

Скрытое / Hidden: Firstborn / Hidden: Förstfödd [S01] (2019) WEB-DLRip | P

Скачать skrytoe-hidden-firstborn-f-rstf-dd-s01-2019-web-dlrip-p.torrent
U Магнитная ссылка Размер: 5.18 GB Раздают: 121 Качают: 36 Добавлен: 2019-08-04 07:18:43
Скрытое / Hidden: Firstborn / Hidden: Förstfödd [S01] (2019) WEB-DLRip | P

Название: Скрытое
Оригинальное название: Hidden: Firstborn / Hidden: Förstfödd
Год выхода: 2019
Жанр: фэнтези, триллер
Режиссёр: Дэвид Беррон, Джонатан Сьоберг, Даниель ди Градо
В ролях: Аугуст Витгенштайн, Изабелла Скорупко, Андерс Мосслинг, Филипп Александерсон, Эрик Эриксон, Гизем Эрдоган, Лиза Линнерторп, Пиа Тьелта, Саймон Дж. Бергер

О фильме: Йонас учится на юридическом факультете, заботится о больной матери и подрабатывает на стройке. Стрессом и усталостью он объясняет свои приступы головной боли, даже не подозревая о том, как сильно он отличается от большинства людей. Невероятные открытия переворачивают его жизнь после несчастного случая. Йонас буквально возвращается с того света, чувствуя в себе новую силу и новые желания. Став мишенью таинственного преследования, он пускается в бега. Ему предстоит столкнуться с бывшим полицейским Вивикой Элдх, расследующей ритуальные убийства, и вместе с ней исследовать закоулки альтернативного Стокгольма.

Страна: Швеция
Студия: Yellow Bird Film & TV
Продолжительность: ~00:44:00 серия
Перевод: Профессиональный (многоголосый, закадровый) по заказу онлайн-сервиса ivi

Файл
Качество: WEB-DLRip
Формат: AVI
Видео: 704x352 at 25.000 fps, XviD, ~1999 kbps avg
Аудио: Russian: 48 kHz, AC3, 2/0 (L,R) ch, ~192 kbps  |Многоголосый закадровый, по заказу онлайн-сервиса ivi|
Субтитры: None

***Примечание: Без рекламы
***Релиз: teko


[+] MediaInfo
General
Complete name : s01e01.avi
Format : AVI
Format/Info : Audio Video Interleave
File size : 703 MiB
Duration : 44mn 33s
Overall bit rate : 2 204 Kbps
Writing application : VirtualDubMod 1.5.10.3 | www.virtualdub-fr.org || (build 2550/release)
Writing library : VirtualDubMod build 2550/release

Video
ID : 0
Format : MPEG-4 Visual
Format profile : Advanced Simple@L5
Format settings, BVOP : 2
Format settings, QPel : No
Format settings, GMC : No warppoints
Format settings, Matrix : Custom
Codec ID : XVID
Codec ID/Hint : XviD
Duration : 44mn 33s
Bit rate : 2 002 Kbps
Width : 704 pixels
Height : 352 pixels
Display aspect ratio : 2.000
Frame rate : 25.000 fps
Color space : YUV
Chroma subsampling : 4:2:0
Bit depth : 8 bits
Scan type : Progressive
Compression mode : Lossy
Bits/(Pixel*Frame) : 0.323
Stream size : 638 MiB (91%)
Writing library : XviD 73

Audio
ID : 1
Format : AC-3
Format/Info : Audio Coding 3
Mode extension : CM (complete main)
Format settings, Endianness : Big
Codec ID : 2000
Duration : 44mn 33s
Bit rate mode : Constant
Bit rate : 192 Kbps
Channel(s) : 2 channels
Channel positions : Front: L R
Sampling rate : 48.0 KHz
Frame rate : 31.250 fps (1536 spf)
Compression mode : Lossy
Stream size : 61.2 MiB (9%)
Alignment : Split accross interleaves
Interleave, duration : 40 ms (1.00 video frame)
Interleave, preload duratio : 500 ms



Скриншоты:
[+] Всего файлов в раздаче - 8:
Season_01/s01e01.avi702.54 MB
Season_01/s01e08.avi688.69 MB
Season_01/s01e04.avi676.35 MB
Season_01/s01e02.avi674.14 MB
Season_01/s01e06.avi661.03 MB
Season_01/s01e07.avi648.36 MB
Season_01/s01e05.avi635.86 MB
Season_01/s01e03.avi617.09 MB

Отзывы
Зарегистрируйтесь чтобы добавить комментарий.
Обратная связь
Copyleft ©