↑↓Torrent.by
Поиск
Логин: Регистрация
Пароль: Восстановить пароль
Загрузка...

Борьба с моей семьей / Fighting with My Family (2019) BDRip-AVC от New-Team | D

Скачать borba-s-moey-semey-fighting-with-my-family-2019-bdrip-avc-ot-new-team-d.torrent
U Магнитная ссылка Размер: 2.17 GB Раздают: 70 Качают: 15 Добавлен: 2019-08-04 07:19:09
Борьба с моей семьей / Fighting with My Family (2019) BDRip-AVC от New-Team | D

Борьба с моей семьей
Fighting with My Family

«Based on the Incredible True Story»

Страна: Великобритания, США
Жанр:  драма, комедия, биография, спорт
Год выпуска: 2019
Продолжительность: 01:48:28

Перевод: Профессиональный (полное дублирование) [Blu-ray CEE]
Субтитры: русские (форсированные, полные), английские (полные, SDH)
Оригинальная аудиодорожка: английский

Режиссер: Стивен Мерчант / Stephen Merchant

В ролях: Флоренс Пью, Джек Лауден, Ник Фрост, Лина Хиди, Дуэйн Джонсон, Thomas Whilley, Tori Ellen Ross, Olivia Bernstone, Леа Фергюсон, Мохаммад Али Амири

Описание: Брат с сестрой Зак и Сарайя, как и всё их семейство, помешаны на рестлинге, и оба мечтают пробиться в высшую лигу. Их родители были не самыми законопослушными гражданами, и когда остальные выбирали в качестве спасения религию, они выбрали спорт. Пока старший сын сидит в тюрьме, семейство Найт зарабатывает своим увлечением: устраивает публичные выступления, а Зак ведёт секцию рестлинга. Однажды мечта Зака и Сарайи оказывается как никогда близка к свершению - в их британское захолустье приезжает отборщик WWE.

Релиз:

Автор рипа: stalkerok

Семпл

Качество видео: BDRip-AVC | Исходник: Na ringu z rodziną.[Fighting with My Family].2019.1080p.PL.RETAiL.BD50-DVDSEED
Формат видео: MKV
Видео кодек: AVC
Аудио кодек: AC3
Видео: AVC, 1961 Кбит/сек, 1108x464 (2.40:1), 23,976 кадр/сек
Аудио №1: AC3, 448 Кбит/сек, 48 КГц, 5.1 - русский
Аудио №2: AC3, 448 Кбит/сек, 48 КГц, 5.1 - английский
Навигация по главам: есть


[+] x264/MediaInfo


---[Information] [03.08.2019 19:23:47] x264 [info]: frame I:1631  Avg QP:17.13  size: 65304
---[Information] [03.08.2019 19:23:47] x264 [info]: frame P:35233 Avg QP:19.44  size: 20998
---[Information] [03.08.2019 19:23:47] x264 [info]: frame B:119191 Avg QP:21.93  size:  6291

General
Unique ID                                : 95660477796209120077729648059418790377 (0x47F789B1BB27901630D2B96815C9C9E9)
Complete name                            : C:tempFighting with My FamilyFighting.with.My.Family.2019.BDRip.x264.Rus.Eng.stalkerok.New-Team.mkv
Format                                   : Matroska
Format version                           : Version 4
File size                                : 2.17 GiB
Duration                                 : 1 h 48 min
Overall bit rate                         : 2 860 kb/s
Movie name                               : Fighting with My Family (2019) | Rip by stalkerok
Encoded date                             : UTC 2019-08-03 16:52:31
Writing application                      : mkvmerge v33.1.0 ('Primrose') 64-bit
Writing library                          : libebml v1.3.7 + libmatroska v1.5.0

Video
ID                                       : 1
Format                                   : AVC
Format/Info                              : Advanced Video Codec
Format profile                           : High@L4.1
Format settings                          : CABAC / 12 Ref Frames
Format settings, CABAC                   : Yes
Format settings, RefFrames               : 12 frames
Codec ID                                 : V_MPEG4/ISO/AVC
Duration                                 : 1 h 48 min
Bit rate                                 : 1 962 kb/s
Width                                    : 1 108 pixels
Height                                   : 464 pixels
Display aspect ratio                     : 2.40:1
Frame rate mode                          : Constant
Frame rate                               : 23.976 FPS
Color space                              : YUV
Chroma subsampling                       : 4:2:0
Bit depth                                : 8 bits
Scan type                                : Progressive
Bits/(Pixel*Frame)                       : 0.159
Stream size                              : 1.49 GiB (69%)
Title                                    : Fighting with My Family (2019) | Rip by stalkerok
Writing library                          : x264 core 157 r2945 72db437
Encoding settings                        : cabac=1 / ref=12 / deblock=1:-3:-2 / analyse=0x3:0x133 / me=umh / subme=11 / psy=1 / psy_rd=1.00:0.00 / mixed_ref=1 / me_range=32 / chroma_me=1 / trellis=2 / 8x8dct=1 / cqm=0 / deadzone=21,11 / fast_pskip=0 / chroma_qp_offset=-2 / threads=12 / lookahead_threads=3 / sliced_threads=0 / nr=0 / decimate=1 / interlaced=0 / bluray_compat=0 / constrained_intra=0 / bframes=14 / b_pyramid=2 / b_adapt=2 / b_bias=0 / direct=3 / weightb=1 / open_gop=0 / weightp=2 / keyint=240 / keyint_min=23 / scenecut=40 / intra_refresh=0 / rc_lookahead=60 / rc=crf / mbtree=0 / crf=18.4 / qcomp=0.65 / qpmin=0 / qpmax=69 / qpstep=4 / vbv_maxrate=50000 / vbv_bufsize=62500 / crf_max=0.0 / nal_hrd=none / filler=0 / ip_ratio=1.40 / pb_ratio=1.30 / aq=3:0.80 / zones=148662,156054,q=30
Default                                  : Yes
Forced                                   : No

Audio #1
ID                                       : 2
Format                                   : AC-3
Format/Info                              : Audio Coding 3
Commercial name                          : Dolby Digital
Codec ID                                 : A_AC3
Duration                                 : 1 h 48 min
Bit rate mode                            : Constant
Bit rate                                 : 448 kb/s
Channel(s)                               : 6 channels
Channel layout                           : L R C LFE Ls Rs
Sampling rate                            : 48.0 kHz
Frame rate                               : 31.250 FPS (1536 SPF)
Bit depth                                : 16 bits
Compression mode                         : Lossy
Stream size                              : 348 MiB (16%)
Title                                    : Dub
Language                                 : Russian
Service kind                             : Complete Main
Default                                  : Yes
Forced                                   : No

Audio #2
ID                                       : 3
Format                                   : AC-3
Format/Info                              : Audio Coding 3
Commercial name                          : Dolby Digital
Codec ID                                 : A_AC3
Duration                                 : 1 h 48 min
Bit rate mode                            : Constant
Bit rate                                 : 448 kb/s
Channel(s)                               : 6 channels
Channel layout                           : L R C LFE Ls Rs
Sampling rate                            : 48.0 kHz
Frame rate                               : 31.250 FPS (1536 SPF)
Bit depth                                : 16 bits
Compression mode                         : Lossy
Stream size                              : 348 MiB (16%)
Language                                 : English
Service kind                             : Complete Main
Default                                  : No
Forced                                   : No

Text #1
ID                                       : 4
Format                                   : UTF-8
Codec ID                                 : S_TEXT/UTF8
Codec ID/Info                            : UTF-8 Plain Text
Duration                                 : 1 h 35 min
Bit rate                                 : 2 b/s
Count of elements                        : 44
Stream size                              : 1.78 KiB (0%)
Title                                    : Forced
Language                                 : Russian
Default                                  : Yes
Forced                                   : No

Text #2
ID                                       : 5
Format                                   : UTF-8
Codec ID                                 : S_TEXT/UTF8
Codec ID/Info                            : UTF-8 Plain Text
Duration                                 : 1 h 44 min
Bit rate                                 : 115 b/s
Count of elements                        : 1827
Stream size                              : 88.5 KiB (0%)
Title                                    : Full
Language                                 : Russian
Default                                  : No
Forced                                   : No

Text #3
ID                                       : 6
Format                                   : UTF-8
Codec ID                                 : S_TEXT/UTF8
Codec ID/Info                            : UTF-8 Plain Text
Duration                                 : 1 h 44 min
Bit rate                                 : 73 b/s
Count of elements                        : 1887
Stream size                              : 56.2 KiB (0%)
Language                                 : English
Default                                  : No
Forced                                   : No

Text #4
ID                                       : 7
Format                                   : UTF-8
Codec ID                                 : S_TEXT/UTF8
Codec ID/Info                            : UTF-8 Plain Text
Duration                                 : 1 h 44 min
Bit rate                                 : 83 b/s
Count of elements                        : 2129
Stream size                              : 64.1 KiB (0%)
Title                                    : SDH
Language                                 : English
Default                                  : No
Forced                                   : No

Menu
00:00:00.000                             : :Chapter 01
00:05:10.268                             : :Chapter 02
00:09:46.252                             : :Chapter 03
00:14:29.034                             : :Chapter 04
00:20:55.045                             : :Chapter 05
00:24:53.867                             : :Chapter 06
00:29:08.371                             : :Chapter 07
00:35:17.073                             : :Chapter 08
00:40:51.031                             : :Chapter 09
00:46:05.763                             : :Chapter 10
00:50:54.718                             : :Chapter 11
00:55:47.927                             : :Chapter 12
01:00:41.137                             : :Chapter 13
01:04:12.807                             : :Chapter 14
01:11:48.512                             : :Chapter 15
01:17:01.158                             : :Chapter 16
01:22:00.457                             : :Chapter 17
01:27:31.120                             : :Chapter 18
01:35:01.404                             : :Chapter 19
01:44:04.738                             : :Chapter 20




Скриншоты:
[+] Всего файлов в раздаче - 1:
Fighting.with.My.Family.2019.BDRip.x264.Rus.Eng.stalkerok.New-Team.mkv2.17 GB

Показать еще раздачи по запросу борьба:
2019-08-12 U Борьба с моей семьей / Fighting with My Family (2019) BDRip от MegaPeer | Лицензия 2.18 GB ↑ 40 ↓ 28
2019-08-05 U Борьба с моей семьей / Fighting with My Family (2019) BDRip от Twister & ExKinoRay | Лицензия 1.46 GB ↑ 55 ↓ 24
2019-08-05 U Борьба с моей семьей / Fighting with My Family (2019) HDRip от Portablius | Лицензия 745.66 MB ↑ 99 ↓ 10
2019-08-04 U Борьба с моей семьей / Fighting with My Family (2019) BDRip 720p от селезень | Лицензия 5.20 GB ↑ 218 ↓ 117
2019-08-04 U Борьба с моей семьей / Fighting with My Family (2019) BDRip-AVC от New-Team | D 1.48 GB ↑ 119 ↓ 17
2019-08-04 U Борьба с моей семьей / Fighting with My Family (2019) BDRip 1080p от селезень | Лицензия 8.99 GB ↑ 439 ↓ 104
2019-08-03 U Борьба с моей семьей / Fighting with My Family (2019) BDRemux 1080p от селезень | Лицензия 26.45 GB ↑ 237 ↓ 192

Отзывы
Зарегистрируйтесь чтобы добавить комментарий.
Обратная связь
Copyleft ©