↑↓Torrent.by
Поиск
Логин: Регистрация
Пароль: Восстановить пароль
Загрузка...

ВВС: Правда о том, как быть в форме / The Truth About Getting fit (2018) DVB | P2

Скачать vvs-pravda-o-tom-kak-byt-v-forme-the-truth-about-getting-fit-2018-dvb-p2.torrent
U Магнитная ссылка Размер: 716.81 MB Раздают: 80 Качают: 24 Добавлен: 2019-08-04 13:56:24
ВВС: Правда о том, как быть в форме / The Truth About Getting fit (2018) DVB | P2

Название: Правда о том, как быть в форме
Оригинальное название: The Truth About Getting fit
Год выхода: 2018
Жанр: Документальный
Режиссер: Кейт Прингл
В ролях: Майкл Мосли

О фильме:
Какое минимальное количество физических упражнений нужно делать, чтобы прожить долгую и здоровую жизнь? Достаточно ли заниматься 2 минуты в неделю? Тяжелые или легкие веса использовать для наращивания мышечной массы? Может ли физическая активность улучшить психологическое состояние? Майкл Мосли объединяется с учеными, чьи последние исследования превращают общеизвестные знания о фитнесе с ног на голову расскажет, как сохранить физическую форму с умом!

Страна: Великобритания
Студия: BBC Studios
Продолжительность: 00:49:21
Перевод: Профессиональный (двухголосый закадровый) Видеофильм ТВ

Файл
Кодек: AVC/H.264
Качество: DVB
Видео: 720x576@1047x576 (16:9) AVC (H.264) Main@L3.0, ~ 1736 kbps, 25fps
Звук: Русский 48 kHz, MPEG Layer 2, 2 ch, ~192.00 kbps avg

Семпл

Релиз от: kyba
[+] MediaInfo
Complete name               : F:НаладкиSD-фильмыПравда о том, как быть в форме.ts
Format                      : MPEG-TS
File size                   : 717 MiB
Duration                    : 49 min 21 s
Overall bit rate mode       : Variable
Overall bit rate            : 2 030 kb/s

Video
ID                          : 401 (0x191)
Menu ID                     : 2608 (0xA30)
Format                      : AVC
Format/Info                 : Advanced Video Codec
Format profile              : Main@L3
Format settings             : CABAC / 4 Ref Frames
Format settings, CABAC      : Yes
Format settings, Reference  : 4 frames
Codec ID                    : 27
Duration                    : 49 min 21 s
Bit rate                    : 1 736 kb/s
Width                       : 720 pixels
Height                      : 576 pixels
Display aspect ratio        : 16:9
Frame rate                  : 25.000 FPS
Standard                    : Component
Color space                 : YUV
Chroma subsampling          : 4:2:0
Bit depth                   : 8 bits
Scan type                   : Interlaced
Scan type, store method     : Separated fields
Scan order                  : Top Field First
Bits/(Pixel*Frame)          : 0.167
Stream size                 : 613 MiB (86%)
Color range                 : Limited
Color primaries             : BT.601 PAL
Transfer characteristics    : BT.470 System B/G
Matrix coefficients         : BT.470 System B/G

Audio
ID                          : 402 (0x192)
Menu ID                     : 2608 (0xA30)
Format                      : MPEG Audio
Format version              : Version 1
Format profile              : Layer 2
Codec ID                    : 3
Duration                    : 49 min 21 s
Bit rate mode               : Constant
Bit rate                    : 192 kb/s
Channel(s)                  : 2 channels
Sampling rate               : 48.0 kHz
Frame rate                  : 41.667 FPS (1152 SPF)
Compression mode            : Lossy
Delay relative to video     : -80 ms
Stream size                 : 67.8 MiB (9%)
Language                    : Russian



Скриншоты:
[+] Всего файлов в раздаче - 1:
Правда о том, как быть в форме.ts716.81 MB

Показать еще раздачи по запросу правда:
2019-08-12 U Чистая правда / All Is True (2018) WEB-DLRip от MegaPeer | iTunes 1.46 GB ↑ 38 ↓ 21
2019-07-14 U Правда о пророчествах Нострадамуса / Nostradamus, la vérité sur les prophéties (2012) DVB | P2 1.09 GB ↑ 43 ↓ 10
2019-05-01 U Орлов Алексей - Афганский дневник пехотного лейтенанта. «Окопная правда» войны (2014) FB2 3.36 MB ↑ 239 ↓ 8
2019-03-11 U Дуглас Джеймс - Зачем убили Джона Кеннеди. Правда, которую важно знать (2019) FB2 3.41 MB ↑ 134 ↓ 6
2018-08-29 U Правда или действие / Truth or Dare (2018) BDRip 720p от ExKinoRay | Расширенная версия | Лицензия 4.52 GB ↑ 75 ↓ 18
2018-08-28 U Правда или действие / Truth or Dare (2018) BDRip-AVC от HELLYWOOD | Расширенная версия | Лицензия 1.46 GB ↑ 298 ↓ 12
2018-08-10 U Комсомольская Правда №32 (2018) PDF 1К31.08 MB ↑ 347 ↓ 15

Отзывы
Зарегистрируйтесь чтобы добавить комментарий.
Обратная связь
Copyleft ©