↑↓Torrent.by
Поиск
Логин: Регистрация
Пароль: Восстановить пароль
Загрузка...

Мстители: Финал / Avengers: Endgame (2019) BDRip-HEVC 1080p | iTunes

Скачать mstiteli-final-avengers-endgame-2019-bdrip-hevc-1080p-itunes.torrent
U Магнитная ссылка Размер: 4.49 GB Раздают: 276 Качают: 154 Добавлен: 2019-08-05 12:26:11
Мстители: Финал / Avengers: Endgame (2019) BDRip-HEVC 1080p | iTunes

Название: Мстители: Финал
Оригинальное название: Avengers: Endgame
Год выхода: 2019
Жанр: Фантастика, фэнтези, боевик, приключения
Режиссер: Энтони Руссо, Джо Руссо
В ролях: Бри Ларсон, Линда Карделлини, Скарлетт Йоханссон, Карен Гиллан, Тесса Томпсон, Роберт Дауни мл., Крис Хемсворт, Крис Эванс, Эванджелин Лилли, Хейли Этвелл, Марк Руффало, Джереми Реннер, Дон Чидл, Пол Радд

О фильме:
Оставшиеся в живых члены команды Мстителей и их союзники должны разработать новый план, который поможет противостоять разрушительным действиям могущественного титана Таноса. После наиболее масштабной и трагической битвы в истории они не могут допустить ошибку.

 
Страна: США
Продолжительность: 03:01:11
Перевод: Дублированный (iTunes)

Файл
Кодек: H.265
Качество: BDRip-HEVC 1080p
Видео: HEVC/H.265, 1920x800, ~3091 kbps, 10bit
Звук: 48 kHz, AC3, 5.1, 384 Kbps
Субтитры: русские (форс.), русские (3xFull)


[+] MI
Полное имя                               : J:СборкаМстители. Финал - Avengers Endgame [2019] 1080p.10bit.BluRay.AC3.HEVC.iTunes.mkv
Формат                                   : Matroska
Версия формата                           : Version 4 / Version 2
Размер файла                             : 4,49 Гбайт
Продолжительность                        : 3 ч. 1 м.
Общий поток                              : 3546 Кбит/сек
Название фильма                          : Avengers: Endgame (2019)
Дата кодирования                         : UTC 2019-08-04 08:55:10
Программа кодирования                    : mkvmerge v7.3.0 ('Nouages') 64bit built on Oct 22 2014 18:53:34
Библиотека кодирования                   : libebml v1.3.0 + libmatroska v1.4.1
DURATION                                 : 02:49:02.529000000
NUMBER_OF_FRAMES                         : 2222
NUMBER_OF_BYTES                          : 102536
_STATISTICS_WRITING_APP                  : mkvmerge v7.3.0 ('Nouages') 64bit built on Oct 22 2014 18:53:34
_STATISTICS_WRITING_DATE_UTC             : 2019-08-04 08:55:10
_STATISTICS_TAGS                         : BPS DURATION NUMBER_OF_FRAMES NUMBER_OF_BYTES

Видео
Идентификатор                            : 1
Формат                                   : HEVC
Формат/Информация                        : High Efficiency Video Coding
Профиль формата                          : Main 10@L4@Main
Идентификатор кодека                     : V_MPEGH/ISO/HEVC
Продолжительность                        : 3 ч. 1 м.
Битрейт                                  : 3091 Кбит/сек
Ширина                                   : 1920 пикселей
Высота                                   : 800 пикселей
Соотношение сторон                       : 2,40:1
Режим частоты кадров                     : Постоянный
Частота кадров                           : 23,976 кадра/сек
Цветовое пространство                    : YUV
Субдискретизация насыщенности            : 4:2:0
Битовая глубина                          : 10 бит
Бит/(Пиксели*Кадры)                      : 0.084
Размер потока                            : 3,91 Гбайт (87%)
Библиотека кодирования                   : x265 3.1+5-9c5c9cef2a86:[Windows][MSVC 1921][64 bit] 10bit
Настройки программы                      : cpuid=1111039 / frame-threads=3 / numa-pools=12 / wpp / no-pmode / no-pme / no-psnr / ssim / log-level=2 / input-csp=1 / input-res=1920x800 / interlace=0 / total-frames=260652 / level-idc=0 / high-tier=1 / uhd-bd=0 / ref=3 / no-allow-non-conformance / no-repeat-headers / annexb / no-aud / no-hrd / info / hash=0 / no-temporal-layers / open-gop / min-keyint=23 / keyint=250 / gop-lookahead=0 / bframes=8 / b-adapt=2 / b-pyramid / bframe-bias=0 / rc-lookahead=80 / lookahead-slices=5 / scenecut=40 / radl=0 / no-splice / no-intra-refresh / ctu=64 / min-cu-size=8 / no-rect / no-amp / max-tu-size=32 / tu-inter-depth=1 / tu-intra-depth=1 / limit-tu=0 / rdoq-level=0 / dynamic-rd=0.00 / no-ssim-rd / signhide / no-tskip / nr-intra=0 / nr-inter=0 / no-constrained-intra / no-strong-intra-smoothing / max-merge=3 / limit-refs=1 / no-limit-modes / me=3 / subme=5 / merange=57 / temporal-mvp / weightp / no-weightb / no-analyze-src-pics / deblock=0:0 / sao / no-sao-non-deblock / rd=3 / early-skip / no-rskip / no-fast-intra / no-tskip-fast / no-cu-lossless / b-intra / no-splitrd-skip / rdpenalty=0 / psy-rd=2.00 / psy-rdoq=0.00 / no-rd-refine / no-lossless / cbqpoffs=0 / crqpoffs=0 / rc=crf / crf=18.0 / qcomp=0.60 / qpstep=4 / stats-write=0 / stats-read=0 / ipratio=1.40 / pbratio=1.30 / aq-mode=3 / aq-strength=1.00 / cutree / zone-count=0 / no-strict-cbr / qg-size=32 / no-rc-grain / qpmax=69 / qpmin=0 / no-const-vbv / sar=0 / overscan=0 / videoformat=5 / range=0 / colorprim=2 / transfer=2 / colormatrix=2 / chromaloc=0 / display-window=0cll=0,0 / min-luma=0 / max-luma=1023 / log2-max-poc-lsb=8 / vui-timing-info / vui-hrd-info / slices=1 / no-opt-qp-pps / no-opt-ref-list-length-pps / no-multi-pass-opt-rps / scenecut-bias=0.05 / no-opt-cu-delta-qp / no-aq-motion / no-hdr / no-hdr-opt / no-dhdr10-opt / no-idr-recovery-sei / analysis-reuse-level=5 / scale-factor=0 / refine-intra=0 / refine-inter=0 / refine-mv=0 / refine-ctu-distortion=0 / no-limit-sao / ctu-info=0 / no-lowpass-dct / refine-analysis-type=0 / copy-pic=1 / max-ausize-factor=1.0 / no-dynamic-refine / no-single-sei / no-hevc-aq / no-svt / no-field / qp-adaptation-range=1.00
Default                                  : Да
Forced                                   : Нет

Аудио
Идентификатор                            : 2
Формат                                   : AC-3
Формат/Информация                        : Audio Coding 3
Расширение режима                        : CM (complete main)
Параметр Endianness формата              : Big
Идентификатор кодека                     : A_AC3
Продолжительность                        : 3 ч. 1 м.
Вид битрейта                             : Постоянный
Битрейт                                  : 384 Кбит/сек
Каналы                                   : 6 каналов
Расположение каналов                     : Front: L C R, Side: L R, LFE
Частота                                  : 48,0 КГц
Битовая глубина                          : 16 бит
Метод сжатия                             : С потерями
Размер потока                            : 498 Мбайт (11%)
Заголовок                                : Dub | DD 5.1 @ 384 kbps - iTunes
Язык                                     : Russian
Default                                  : Да
Forced                                   : Нет
DURATION                                 : 03:01:11.360000000
NUMBER_OF_FRAMES                         : 339730
NUMBER_OF_BYTES                          : 521825280
_STATISTICS_WRITING_APP                  : mkvmerge v7.3.0 ('Nouages') 64bit built on Oct 22 2014 18:53:34
_STATISTICS_WRITING_DATE_UTC             : 2019-08-04 08:55:10
_STATISTICS_TAGS                         : BPS DURATION NUMBER_OF_FRAMES NUMBER_OF_BYTES

Текст #1
Идентификатор                            : 3
Формат                                   : UTF-8
Идентификатор кодека                     : S_TEXT/UTF8
Идентификатор кодека/Информация          : UTF-8 Plain Text
Заголовок                                : Forced
Язык                                     : Russian
Default                                  : Да
Forced                                   : Нет

Текст #2
Идентификатор                            : 4
Формат                                   : UTF-8
Идентификатор кодека                     : S_TEXT/UTF8
Идентификатор кодека/Информация          : UTF-8 Plain Text
Заголовок                                : iTunes
Язык                                     : Russian
Default                                  : Нет
Forced                                   : Нет

Текст #3
Идентификатор                            : 5
Формат                                   : UTF-8
Идентификатор кодека                     : S_TEXT/UTF8
Идентификатор кодека/Информация          : UTF-8 Plain Text
Заголовок                                : Focs
Язык                                     : Russian
Default                                  : Нет
Forced                                   : Нет

Текст #4
Идентификатор                            : 6
Формат                                   : UTF-8
Идентификатор кодека                     : S_TEXT/UTF8
Идентификатор кодека/Информация          : UTF-8 Plain Text
Заголовок                                : Ruf
Язык                                     : Russian
Default                                  : Нет
Forced                                   : Нет




Скриншоты:
[+] Всего файлов в раздаче - 1:
Мстители. Финал - Avengers Endgame [2019] 1080p.10bit.BluRay.AC3.HEVC.iTunes.mkv4.49 GB

Показать еще раздачи по запросу мстители:
Сегодня U Мстители: Финал / Avengers: Endgame (2019) WEBRip от Deadmauvlad | D | Open Matte | Локализованная версия 2.19 GB ↑ 21 ↓ 5
Сегодня U Мстители: Финал / Avengers: Endgame (2019) HDRip от Scarabey | iTunes 2.71 GB ↑ 22 ↓ 9
2019-08-16 U Мстители: Финал / Avengers: Endgame (2019) WEBRip 1080p | D, P | Open Matte | Локализованная версия 6.84 GB ↑ 147 ↓ 68
2019-08-09 U Мстители: Финал / Avengers: Endgame (2019) BDRip-HEVC 720p | D | iTunes 3.13 GB ↑ 37 ↓ 19
2019-08-07 U Мстители: Финал / Avengers: Endgame (2019) BDRip-HEVC 1080p от HANNIBAL | iTunes 8.02 GB ↑ 49 ↓ 37
2019-08-07 U Мстители: Финал / Avengers: Endgame (2019) BDRip 1080p от qqss44 & MegaPeer | iTunes 9.63 GB ↑ 88 ↓ 69
2019-08-07 U Мстители: Финал / Avengers: Endgame (2019) BDRip 1080p от HELLYWOOD | iTunes 11.88 GB ↑ 216 ↓ 105

Отзывы
Зарегистрируйтесь чтобы добавить комментарий.
Обратная связь
Copyleft ©