↑↓Torrent.by
Поиск
Логин: Регистрация
Пароль: Восстановить пароль
Загрузка...

Запретный Париж. Подземные мегаструктуры / Paris interdit : mégastructures souterraines (2017) DVB | P2

Скачать zapretnyy-parizh-podzemnye-megastruktury-paris-interdit-m-gastructures-souterraines-2017-dvb-p2.torrent
U Магнитная ссылка Размер: 652.24 MB Раздают: 45 Качают: 13 Добавлен: 2019-08-05 12:27:15
Запретный Париж. Подземные мегаструктуры / Paris interdit : mégastructures souterraines (2017) DVB | P2

Название: Запретный Париж. Подземные мегаструктуры
Оригинальное название: Paris interdit : mégastructures souterraines
Год выхода: 2017
Жанр: Документальный, история
Режиссер: Софи Джино

О фильме:
Весь мир знает Париж как одну из мировых архитектурных сокровищниц. Но город огней имеет также много секретов, которые ещё только предстоит раскрыть. Действительно, под своими мостовыми французская столица скрывает иные мегаструктуры: таинственные, опасные и неизвестные публике. Подземные сооружения уникальны и необходимы городу.

Страна: Франция
Студия: La Famiglia
Продолжительность: 00:53:34
Перевод: Профессиональный (двухголосый закадровый) SDI Media

Файл
Кодек: AVC/H.264
Качество: DVB
Видео: 720x576@1047x576 (16:9) AVC (H.264) High@L3.0, ~ 1424 kbps, 25fps
Звук: Русский 48 kHz, MPEG Layer 2, 2 ch, ~192.00 kbps avg

Семпл

Релиз от: kyba
[+] MediaInfo
Complete name               : F:НаладкиSD-фильмыЗапретный Париж_Подземные мегаструктуры.ts
Format                      : MPEG-TS
File size                   : 652 MiB
Duration                    : 53 min 34 s
Overall bit rate mode       : Variable
Overall bit rate            : 1 702 kb/s

Video
ID                          : 201 (0xC9)
Menu ID                     : 101 (0x65)
Format                      : AVC
Format/Info                 : Advanced Video Codec
Format profile              : High@L3
Format settings             : CABAC / 4 Ref Frames
Format settings, CABAC      : Yes
Format settings, Reference  : 4 frames
Codec ID                    : 27
Duration                    : 53 min 34 s
Bit rate                    : 1 424 kb/s
Width                       : 720 pixels
Height                      : 576 pixels
Display aspect ratio        : 16:9
Frame rate                  : 25.000 FPS
Standard                    : Component
Color space                 : YUV
Chroma subsampling          : 4:2:0
Bit depth                   : 8 bits
Scan type                   : Interlaced
Scan type, store method     : Separated fields
Scan order                  : Top Field First
Bits/(Pixel*Frame)          : 0.137
Stream size                 : 546 MiB (84%)
Color range                 : Limited
Color primaries             : BT.601 PAL
Transfer characteristics    : BT.470 System B/G
Matrix coefficients         : BT.470 System B/G

Audio
ID                          : 301 (0x12D)
Menu ID                     : 101 (0x65)
Format                      : MPEG Audio
Format version              : Version 1
Format profile              : Layer 2
Codec ID                    : 3
Duration                    : 53 min 34 s
Bit rate mode               : Constant
Bit rate                    : 192 kb/s
Channel(s)                  : 2 channels
Sampling rate               : 48.0 kHz
Frame rate                  : 41.667 FPS (1152 SPF)
Compression mode            : Lossy
Delay relative to video     : -80 ms
Stream size                 : 73.6 MiB (11%)
Language                    : Russian



Скриншоты:
[+] Всего файлов в раздаче - 1:
Запретный Париж_Подземные мегаструктуры.ts652.24 MB

Отзывы
Зарегистрируйтесь чтобы добавить комментарий.
Обратная связь
Copyleft ©