↑↓Torrent.by
Поиск
Логин: Регистрация
Пароль: Восстановить пароль
Загрузка...

Беглецы (2017) WEB-DLRip от GeneralFilm | iTunes

Скачать beglecy-2017-web-dlrip-ot-generalfilm-itunes.torrent
U Магнитная ссылка Размер: 1.37 GB Раздают: 70 Качают: 20 Добавлен: 2019-08-05 12:27:36
Беглецы (2017) WEB-DLRip от GeneralFilm | iTunes

Год выпуска: 2017
Жанр:  Комедия
Выпущено: Россия, Латвия, Forma Pro Films
Режиссер: Ара Оганесян
В ролях: Евгений Ткачук, Равшана Куркова, Константин Крюков, Максим Виторган, Алексей Маклаков, Анастасия Калманович, Олег Верещагин и др.

О фильме: Молодой кумир поп-сцены Алекс, достигнув пика славы, растрачивает былой талант и гонорары на выпивку и женщин. Вместе с приличной репутацией он стремительно теряет и благосклонность своего продюсера Кати. После недолгих циничных подсчетов Катя принимает решение, что от мертвого Алекса выйдет больше прибыли, чем от живого. Она заказывает его профессионалам...

Качество: WEB-DLRip
Видео: XviD build 73, 720x384 (2.87:1), 24.000 fps, 1948 Kbps (0.294 bit/pixel)
Аудио: 48.0 kHz, AC3, 6 ch, 384 kbps
Продолжительность: 01:23:31
Перевод: Не требуется [Русский]
Cубтитры: нет

Релиз:


[+] MediaInfo
General
Complete name               : D:RazdachiBeglecy.2017.WEB-DLRip.GeneralFilm.avi
Format                      : AVI
Format/Info                 : Audio Video Interleave
File size                   : 1.37 GiB
Duration                    : 1 h 23 min
Overall bit rate            : 2 341 kb/s
Writing application         : VirtualDubMod 1.5.10.3 | www.virtualdub-fr.org || (build 2550/release)
Writing library             : VirtualDubMod build 2550/release

Video
ID                          : 0
Format                      : MPEG-4 Visual
Format profile              : Advanced Simple@L5
Format settings             : BVOP1 / Custom Matrix
Format settings, BVOP       : 1
Format settings, QPel       : No
Format settings, GMC        : No warppoints
Format settings, Matrix     : Custom
Codec ID                    : XVID
Codec ID/Hint               : XviD
Duration                    : 1 h 23 min
Bit rate                    : 1 948 kb/s
Width                       : 720 pixels
Height                      : 384 pixels
Display aspect ratio        : 1.85:1
Frame rate                  : 24.000 FPS
Color space                 : YUV
Chroma subsampling          : 4:2:0
Bit depth                   : 8 bits
Scan type                   : Progressive
Compression mode            : Lossy
Bits/(Pixel*Frame)          : 0.294
Stream size                 : 1.14 GiB (83%)
Writing library             : XviD 73

Audio
ID                          : 1
Format                      : AC-3
Format/Info                 : Audio Coding 3
Commercial name             : Dolby Digital
Codec ID                    : 2000
Duration                    : 1 h 23 min
Bit rate mode               : Constant
Bit rate                    : 384 kb/s
Channel(s)                  : 6 channels
Channel layout              : L R C LFE Ls Rs
Sampling rate               : 48.0 kHz
Frame rate                  : 31.250 FPS (1536 SPF)
Bit depth                   : 16 bits
Compression mode            : Lossy
Stream size                 : 229 MiB (16%)
Alignment                   : Split accross interleaves
Interleave, duration        : 42  ms (1.00 video frame)
Interleave, preload duratio : 500  ms
Service kind                : Complete Main



Скриншоты:
[+] Всего файлов в раздаче - 1:
Beglecy.2017.WEB-DLRip.GeneralFilm.avi1.37 GB

Похожие раздачи по запросу - беглецы:
2019-08-03 U Беглецы (2017) WEB-DLRip-AVC от ExKinoRay | iTunes 1.55 GB ↑ 109 ↓ 50
2019-08-03 U Беглецы (2017) WEB-DL 1080p | iTunes 3.27 GB ↑ 138 ↓ 66
2019-08-03 U Беглецы (2017) WEB-DLRip | iTunes 1.46 GB ↑ 196 ↓ 72
2019-06-04 U Блейк Крауч - Беглецы. Неземное сияние (2019) MP3 498.49 MB ↑ 44 ↓ 7

Отзывы
Зарегистрируйтесь чтобы добавить комментарий.
Обратная связь
Copyleft ©