↑↓Torrent.by
Поиск
Логин: Регистрация
Пароль: Восстановить пароль
Загрузка...

Пацаны / The Boys [S01] (2019) WEB-DLRip-AVC от ExKinoRay | HDRezka Studio

Скачать pacany-the-boys-s01-2019-web-dlrip-avc-ot-exkinoray-hdrezka-studio.torrent
U Магнитная ссылка Размер: 7.55 GB Раздают: 95 Качают: 139 Добавлен: 2019-08-05 18:02:39
Пацаны / The Boys [S01] (2019) WEB-DLRip-AVC от ExKinoRay | HDRezka Studio

═╬  Пацаны  ╬═

Название: Пацаны
Оригинальное название: The Boys
Год выхода: 2019
Жанр:  Фантастика, боевик, комедия, криминал
Режиссер: Филип Сгриккиа, Дэниэл Эттиэс, Дженнифер Фанг
В ролях: Карл Урбан, Доминик МакЭллигот, Эрин Мориарти, Элизабет Шу, Энтони Старр, Дженнифер Эспозито, Саймон Пегг, Шантель Ван Сантен, Хэйли Джоэл Осмент, Чейс Кроуфорд, Нэйтан Митчелл, Джек Куэйд, Джесси Ашер, Билли Зейн, Джим Бивер, Лас Алонсо, Джанкарло Эспозито, Джимми Фэллон, Тара Рид, Сет Роген

О сериале: Действие сериала разворачивается в мире, где существуют супергерои. Именно они являются настоящими звездами. Их все знают и обожают. Но за идеальным фасадом скрывается гораздо более мрачный мир наркотиков и секса, а большинство героев — в жизни не самые приятные люди. Для контроля за супергероями ЦРУ создает специальный отряд, неофициально известный как «Пацаны», суровые члены которого всегда готовы поставить зазнавшегося героя на место самым жестоким способом.

Страна: США
Продолжительность: ~ 01:00:00
Перевод: Профессиональный (многоголосый, закадровый) | HDRezka Studio (Финальная версия)
В сериале присутствуют откровенные сексуальные сцены, в озвучке ненормативная лексика ! 18+

БЕЗ КАКОЙ-ЛИБО РЕКЛАМЫ!

Формат: MKV
Качество: WEB-DLRip-AVC
Видео: MPEG-4 AVC, 720x306 (2.35:1), 23.976 fps, 1700 Kbps, 0.322 bit/pixel
Аудио #01: 48 kHz, AC3, 2.0, 192 Kbps | HDRezka | RUS |
Аудио #02: 48 kHz, AC3, 5.1, 384 Kbps | Оригинал |  ENG |
Субтитры: Русские (форсированные, полные), английские

Релиз:

Автор релиза:


[+] ОтчетМедиаИнфо

General
Unique ID                                : 215279561503817829680394845627479312951 (0xA1F555DC373B3A60A799F3AF0DC54A37)
Complete name                            : F:The.Boys.2019.MVO.ExKinoRayThe.Boys.S01E03.2019.MVO.AVC.ExKinoRay.mkv
Format                                   : Matroska
Format version                           : Version 2
File size                                : 896 MiB
Duration                                 : 54 min
Overall bit rate                         : 2 278 kb/s
Movie name                               : The Boys S01E03 2019 from ExKinoRay
Encoded date                             : UTC 2019-08-04 23:29:25
Writing application                      : mkvmerge v5.6.0 ('Kenya Kane') built on May 27 2012 16:44:04
Writing library                          : libebml v1.2.3 + libmatroska v1.3.0

Video
ID                                       : 1
Format                                   : AVC
Format/Info                              : Advanced Video Codec
Format profile                           : High@L4.1
Format settings, CABAC                   : Yes
Format settings, ReFrames                : 11 frames
Codec ID                                 : V_MPEG4/ISO/AVC
Duration                                 : 54 min
Bit rate                                 : 1 700 kb/s
Width                                    : 720 pixels
Height                                   : 306 pixels
Display aspect ratio                     : 2.35:1
Frame rate mode                          : Constant
Frame rate                               : 23.976 (24000/1001) FPS
Original frame rate                      : 23.976 (23976/1000) FPS
Color space                              : YUV
Chroma subsampling                       : 4:2:0
Bit depth                                : 8 bits
Scan type                                : Progressive
Bits/(Pixel*Frame)                       : 0.322
Stream size                              : 651 MiB (73%)
Title                                    : Enigma
Writing library                          : x264 core 152 r2851 ba24899
Encoding settings                        : cabac=1 / ref=11 / deblock=1:-2:-2 / analyse=0x3:0x113 / me=umh / subme=10 / psy=1 / psy_rd=1.05:0.10 / mixed_ref=1 / me_range=32 / chroma_me=1 / trellis=2 / 8x8dct=1 / cqm=0 / deadzone=21,11 / fast_pskip=0 / chroma_qp_offset=-3 / threads=10 / lookahead_threads=2 / sliced_threads=0 / nr=0 / decimate=0 / interlaced=0 / bluray_compat=0 / constrained_intra=0 / bframes=10 / b_pyramid=2 / b_adapt=2 / b_bias=0 / direct=3 / weightb=1 / open_gop=0 / weightp=2 / keyint=240 / keyint_min=23 / scenecut=40 / intra_refresh=0 / rc=2pass / mbtree=0 / bitrate=1700 / ratetol=1.0 / qcomp=0.65 / qpmin=0 / qpmax=51 / qpstep=4 / cplxblur=20.0 / qblur=0.5 / ip_ratio=1.30 / pb_ratio=1.20 / aq=3:0.80
Default                                  : Yes
Forced                                   : No
Color range                              : Limited
Color primaries                          : BT.709
Transfer characteristics                 : BT.709
Matrix coefficients                      : BT.709

Audio #1
ID                                       : 2
Format                                   : AC-3
Format/Info                              : Audio Coding 3
Mode extension                           : CM (complete main)
Format settings, Endianness              : Big
Codec ID                                 : A_AC3
Duration                                 : 54 min
Bit rate mode                            : Constant
Bit rate                                 : 192 kb/s
Channel(s)                               : 2 channels
Channel positions                        : Front: L R
Sampling rate                            : 48.0 kHz
Frame rate                               : 31.250 FPS (1536 spf)
Compression mode                         : Lossy
Stream size                              : 75.5 MiB (8%)
Title                                    : MVO (HDRezka Studio)
Language                                 : Russian
Default                                  : Yes
Forced                                   : No

Audio #2
ID                                       : 3
Format                                   : AC-3
Format/Info                              : Audio Coding 3
Mode extension                           : CM (complete main)
Format settings, Endianness              : Big
Codec ID                                 : A_AC3
Duration                                 : 54 min
Bit rate mode                            : Constant
Bit rate                                 : 384 kb/s
Channel(s)                               : 6 channels
Channel positions                        : Front: L C R, Side: L R, LFE
Sampling rate                            : 48.0 kHz
Frame rate                               : 31.250 FPS (1536 spf)
Compression mode                         : Lossy
Stream size                              : 151 MiB (17%)
Language                                 : English
Default                                  : No
Forced                                   : No

Text #1
ID                                       : 4
Format                                   : UTF-8
Codec ID                                 : S_TEXT/UTF8
Codec ID/Info                            : UTF-8 Plain Text
Title                                    : Forced
Language                                 : Russian
Default                                  : Yes
Forced                                   : No

Text #2
ID                                       : 5
Format                                   : UTF-8
Codec ID                                 : S_TEXT/UTF8
Codec ID/Info                            : UTF-8 Plain Text
Title                                    : Full
Language                                 : Russian
Default                                  : No
Forced                                   : No

Text #3
ID                                       : 6
Format                                   : UTF-8
Codec ID                                 : S_TEXT/UTF8
Codec ID/Info                            : UTF-8 Plain Text
Title                                    : Full
Language                                 : English
Default                                  : No
Forced                                   : No

Text #4
ID                                       : 7
Format                                   : UTF-8
Codec ID                                 : S_TEXT/UTF8
Codec ID/Info                            : UTF-8 Plain Text
Title                                    : SDH
Language                                 : English
Default                                  : No
Forced                                   : No

Menu
00:00:00.000                             : en:Amazon Original
00:00:05.000                             : en:Ratings
00:00:15.000                             : en:Hughie needs to go home
00:03:04.000                             : en:Title Sequence
00:03:13.000                             : en:Starlight goes to a marketing metting
00:06:44.000                             : en:Time to stand up for himself
00:10:36.000                             : en:Visiting an old comrade
00:14:53.000                             : en:Homelander doesn't like taking orders
00:16:24.000                             : en:Investigating Popclaw
00:23:24.000                             : en:Homelander does Queen Maeve a favor
00:27:17.000                             : en:Compound V
00:31:10.000                             : en:The track event of the century
00:39:50.000                             : en:A-Train vs Shockwave
00:44:25.000                             : en:Surveilling Popclaw
00:51:13.000                             : en:A declaration of war
00:52:57.000                             : en:End Credits




Скриншоты:
[+] Всего файлов в раздаче - 8:
The.Boys.S01E08.2019.MVO.AVC.ExKinoRay.mkv1.06 GB
The.Boys.S01E05.2019.MVO.AVC.ExKinoRay.mkv981.67 MB
The.Boys.S01E06.2019.MVO.AVC.ExKinoRay.mkv981.63 MB
The.Boys.S01E01.2019.MVO.AVC.ExKinoRay.mkv980.46 MB
The.Boys.S01E02.2019.MVO.AVC.ExKinoRay.mkv963.20 MB
The.Boys.S01E04.2019.MVO.AVC.ExKinoRay.mkv921.58 MB
The.Boys.S01E07.2019.MVO.AVC.ExKinoRay.mkv919.18 MB
The.Boys.S01E03.2019.MVO.AVC.ExKinoRay.mkv895.69 MB

Показать еще раздачи по запросу пацаны:
2019-08-08 U Пацаны / The Boys [S01] (2019) WEB-DL 720p | AlexFilm 13.81 GB ↑ 54 ↓ 75
2019-08-08 U Пацаны / The Boys [S01] (2019) WEB-DLRip | AlexFilm 6.62 GB ↑ 55 ↓ 35
2019-08-04 U Пацаны / The Boys [01x01-05 из 08] (2019) WEB-DL 720p | AlexFilm 8.67 GB ↑ 57 ↓ 36
2019-08-03 U Пацаны / The Boys [01x01-05 из 08] (2019) WEB-DL 1080p | AlexFilm 17.81 GB ↑ 54 ↓ 85
2019-08-02 U Пацаны / The Boys [01x01-02 из 08] (2019) WEB-DL 1080p | Кубик в Кубе 7.18 GB ↑ 60 ↓ 29
2019-08-01 U Пацаны / The Boys [01x01-03 из 08] (2019) WEB-DL 1080p | AlexFilm 1К10.48 GB ↑ 56 ↓ 86
2019-07-31 U Пацаны / The Boys [S01] (2019) WEB-DLRip от Generalfilm | КПК | HDRezka Studio 1К1.76 GB ↑ 28 ↓ 26

Отзывы
Зарегистрируйтесь чтобы добавить комментарий.
Обратная связь
Copyleft ©