↑↓Torrent.by
Поиск
Логин: Регистрация
Пароль: Восстановить пароль
Загрузка...

Маугли дикой планеты / Terra Willy: Planète inconnue (2019) WEB-DL 1080p | iTunes

Скачать maugli-dikoy-planety-terra-willy-plan-te-inconnue-2019-web-dl-1080p-itunes.torrent
U Магнитная ссылка Размер: 2.94 GB Раздают: 149 Качают: 71 Добавлен: 2019-08-06 10:34:51
Маугли дикой планеты / Terra Willy: Planète inconnue (2019) WEB-DL 1080p | iTunes

Название: Маугли дикой планеты
Оригинальное название: Terra Willy: Planète inconnue
Год выпуска: 2019
Жанр:  Мультфильм, фантастика, комедия, приключения, полнометражный
Режиссёр: Эрик Тости
В ролях: Тимоте Фон Дорп, Эдуард Баэр, Мари-Южени Марешаль, Гийом Лебон, Барбара Тиссье, Джейсон Каннинг, Лэнден Битти

О фильме: Попав в метеоритный дождь, юный космический исследователь Вилли оказывается на неизвестной планете. С помощью робота Бака он должен выжить здесь до прибытия спасательной миссии его родителей. Но батарея Бака быстро садится, и, чтобы спасти Бака и вернуться домой, Вилли придется найти новых друзей и научиться жить по законам джунглей дикой планеты.

Выпущено: Франция, TAT Productions, Bac Films, France 3 Cinéma
Продолжительность: 01:26:10
Перевод: Дублированный | iTunes

Файл
Качество: WEB-DL 1080p
Контейнер: MKV
Видео: MPEG-4 AVC, 1920x804, 25.000 fps, 4397 Kbps
Аудио: Russian: AC3, 48.0 KHz, 6 ch, 384 kbps - iTunes
Субтитры: Нет


[+] MediaInfo
General
Unique ID                                : 176276028341769521636812808460914918105 (0x849D8734954FC7B88F2E295BB85402D9)
Complete name                            : Maugli.dikoj.planety.2019.WEB-DL.1080p.mkv
Format                                   : Matroska
Format version                           : Version 2
File size                                : 2.94 GiB
Duration                                 : 1 h 26 min
Overall bit rate                         : 4 878 kb/s
Encoded date                             : UTC 2019-08-05 22:51:51
Writing application                      : mkvmerge v5.8.0 ('No Sleep / Pillow') built on Sep  2 2012 15:37:04
Writing library                          : libebml v1.2.3 + libmatroska v1.3.0

Video
ID                                       : 1
Format                                   : AVC
Format/Info                              : Advanced Video Codec
Format profile                           : High@L4
Format settings, CABAC                   : Yes
Format settings, RefFrames               : 5 frames
Codec ID                                 : V_MPEG4/ISO/AVC
Duration                                 : 1 h 26 min
Bit rate                                 : 4 397 kb/s
Width                                    : 1 920 pixels
Height                                   : 804 pixels
Display aspect ratio                     : 2.40:1
Frame rate mode                          : Constant
Frame rate                               : 25.000 FPS
Color space                              : YUV
Chroma subsampling                       : 4:2:0
Bit depth                                : 8 bits
Scan type                                : Progressive
Bits/(Pixel*Frame)                       : 0.114
Stream size                              : 2.65 GiB (90%)
Language                                 : English
Default                                  : Yes
Forced                                   : No
Color range                              : Limited
Color primaries                          : BT.709
Transfer characteristics                 : BT.709
Matrix coefficients                      : BT.709

Audio
ID                                       : 2
Format                                   : AC-3
Format/Info                              : Audio Coding 3
Format settings, Endianness              : Big
Codec ID                                 : A_AC3
Duration                                 : 1 h 26 min
Bit rate mode                            : Constant
Bit rate                                 : 384 kb/s
Channel(s)                               : 6 channels
Channel positions                        : Front: L C R, Side: L R, LFE
Sampling rate                            : 48.0 kHz
Frame rate                               : 31.250 FPS (1536 SPF)
Bit depth                                : 16 bits
Compression mode                         : Lossy
Stream size                              : 237 MiB (8%)
Title                                    : iTunes
Language                                 : Russian
Service kind                             : Complete Main
Default                                  : Yes
Forced                                   : No

Menu
00:00:00.000                             : en:Глава 1
00:07:00.960                             : en:Глава 2
00:13:09.960                             : en:Глава 3
00:20:15.240                             : en:Глава 4
00:26:24.600                             : en:Глава 5
00:33:12.400                             : en:Глава 6
00:39:00.840                             : en:Глава 7
00:47:22.360                             : en:Глава 8
00:52:50.800                             : en:Глава 9
00:57:19.960                             : en:Глава 10
01:02:52.560                             : en:Глава 11
01:06:43.160                             : en:Глава 12
01:10:12.520                             : en:Глава 13
01:14:22.200                             : en:Глава 14
01:18:11.640                             : en:Глава 15



Скриншоты:
[+] Всего файлов в раздаче - 1:
Maugli.dikoj.planety.2019.WEB-DL.1080p.mkv2.94 GB

Похожие раздачи по запросу - маугли:
2019-08-06 U Маугли дикой планеты / Terra Willy: Planète inconnue (2019) WEB-DLRip-AVC от ExKinoRay | iTunes 1.43 GB ↑ 82 ↓ 36
2018-12-13 U Маугли / Маугли: Легенда джунглей / Mowgli (2018) WEBRip 720p от k.e.n & MegaPeer | Пифагор 3.95 GB ↑ 158 ↓ 47
2018-12-09 U Маугли / Маугли: Легенда джунглей / Mowgli (2018) WEBRip 720p | Пифагор 2.18 GB ↑ 318 ↓ 129
2018-12-09 U Маугли / Маугли: Легенда джунглей / Mowgli (2018) WEB-DLRip от Scarabey | Пифагор 1.45 GB ↑ 500 ↓ 145
2018-12-09 U Маугли / Маугли: Легенда джунглей / Mowgli (2018) WEBRip 1080p | Пифагор 4.80 GB ↑ 710 ↓ 258
2018-12-07 U Маугли / Маугли: Легенда джунглей / Mowgli (2018) WEB-DL 1080p | Пифагор 4.69 GB ↑ 4973 ↓ 1901

Отзывы
Зарегистрируйтесь чтобы добавить комментарий.
Обратная связь
Copyleft ©